Круглый год (Вероника Федорова) [2008, Россия, Мультфильм по рассказам Юрия Коваля, DVDRip] 

Цитировать
Круглый год
Страна: Россия
Жанр: Мультфильм
Продолжительность: 00:38:43
Год выпуска: 2008
субтитры: нет
Режиссёр: Вероника Федорова
Описание: «Круглый год» — 12 серий-месяцев! Один из главных персонажей цикла — удивительный кот, который в зависимости от времени года становится Летним, Осенним, Зимним, Весенним… В путешествие по месяцам вместе с котами отправляются Снегири, Курица и цыплятами, Лошадка Тучка, Агафон, Ванечка Пряников и Орехьевна. В основе сценария сериала рассказы знаменитого детского писателя Юрия Коваля, причем несколько серий озвучены голосом самого автора. И, конечно, приключения веселей с музыкой. За саундтрек отвечали самые ответственные композиторы: Моцарт, Гайдн, Вивальди...- | | Совместный релиз: и -Качество: DVDRip
Формат: AVI
Видео: 720x528 (1.36:1), 25 fps, XviD build 73 ~2292 kbps avg, 0.24 bit/pixel
Аудио: 48 kHz, AC3, 2/0 (L,R) ch, ~224 kbps
Субтитры: отсутствуют

Список глав


WIKI
Список глав:
01. Январь - Снегири и коты
02. Февраль - Снежный всадник
03. Март - Весенний кот
04. Апрель – Певцы
05. Май – Лошадка
06. Июнь – Орехьевна
07. Июль - Летний кот
08. Август – Везуха
09. Сентябрь - Осеннее котяро
10. Октябрь – Листобой
11. Ноябрь – Орион
12. Декабрь - Снеги-белы-Доп. информация: по книге Юрия Коваля "Круглый Год, рассказы"
Озвучивание
Текст от автора: Юрий Коваль («Лошадка», «Снеги белы», «Снежный всадник»), Даниил Спиваковский («Орион»), Сергей Щипачёв («Летний кот», «Осенний кот», «Весенний кот», «Снегири и коты», «Орехьевна», «Везуха», «Листобой»)
Певцы: Александр Пожаров и Сергей Олексяк («Певцы»)
Орехьевна: Голубева Зинаида Яковлевна («Снеги белы»)
Музыка: Антонио Вивальди, Вольфганг Амадей Моцарт, Йозеф Гайдн
Аккордеон: Сергей Романов
Награды и номинации
2010 — XV Открытый Российский фестиваль анимационного кино в Суздале — Лучшее изобразительное решение (художнику-постановщику Анастасии Жакулиной за цикл «Круглый год», серии «Снеги белы» и «Снегири и коты»)
2009 — Международный фестиваль анимационных фильмов «Крок» — Диплом «За самую красивую осень» в категории «Прикладная и заказная анимация» (серия «Листобой»)

Отчет Медиаинфо

General
Complete name : Круглый год_DVDRip_Olu6ka.avi
Format : AVI
Format/Info : Audio Video Interleave
File size : 700 MiB
Duration : 38mn 43s
Overall bit rate : 2 526 Kbps
Writing application : VirtualDubModRus 1.5.10.2 (build 2542/release)
Writing library : VirtualDubMod build 2542/release
Video
ID : 0
Format : MPEG-4 Visual
Format profile : Advanced Simple@L5
Format settings, BVOP : 1
Format settings, QPel : No
Format settings, GMC : No warppoints
Format settings, Matrix : Custom
Codec ID : XVID
Codec ID/Hint : XviD
Duration : 38mn 43s
Bit rate : 2 292 Kbps
Width : 720 pixels
Height : 528 pixels
Display aspect ratio : 4:3
Frame rate : 25.000 fps
Color space : YUV
Chroma subsampling : 4:2:0
Bit depth : 8 bits
Scan type : Progressive
Compression mode : Lossy
Bits/(Pixel*Frame) : 0.241
Stream size : 635 MiB (91%)
Writing library : XviD 73
Audio
ID : 1
Format : AC-3
Format/Info : Audio Coding 3
Mode extension : CM (complete main)
Format settings, Endianness : Big
Codec ID : 2000
Duration : 38mn 43s
Bit rate mode : Constant
Bit rate : 224 Kbps
Channel count : 2 channels
Channel positions : Front: L R
Sampling rate : 48.0 KHz
Bit depth : 16 bits
Compression mode : Lossy
Stream size : 62.0 MiB (9%)
Alignment : Split accross interleaves
Interleave, duration : 40 ms (1.00 video frame)
Interleave, preload duration : 500 ms
Спасибо zritel за исходник! Огромная признательность grandmajor за исправление ошибок со звуком на DVD!
Вы не можете начинать темы
Вы не можете отвечать на сообщения
Вы не можете редактировать свои сообщения
Вы не можете удалять свои сообщения
Вы не можете голосовать в опросах
Вы не можете прикреплять файлы к сообщениям
Вы можете скачивать файлы
!ВНИМАНИЕ!

Сайт не предоставляет электронные версии произведений, а занимается лишь коллекционированием и каталогизацией ссылок, присылаемых и публикуемых на форуме нашими читателями. Если вы являетесь правообладателем какого-либо представленного материала и не желаете, чтобы ссылка на него находилась в нашем каталоге, свяжитесь с нами, и мы незамедлительно удалим ее. Файлы для обмена на трекере предоставлены пользователями сайта, и администрация не несет ответственности за их содержание. Просьба не заливать файлы, защищенные авторскими правами, а также файлы нелегального содержания!

Искали программы, игры, дополнения, музыка mp3, аниме, аудио книги, журналы? Добро пожаловать на свободный торрент трекер Torrents, у нас можно скачать бесплатно, без смс и регистрации и прочих ограничений лучшие, отборные сборки программ, игр. Скачать торрентом не составит труда даже не опытному пользователю. Раздачи ежедневно обновляются, только лучшие и качественные раздачи, подробные описания и скриншоты. Огромная коллекция программ для работы со звуком, графикой, дизайном, а так же множество плагинов и инструментов к ним с подробной инструкцией и рекомендациями. Прошивки для навигаторов, карты. Разнообразные игры, для Windows, Linux. В коллекцие есть и старые игры любых жанров, Rpg, Action, Shooter, strategy Множество дополнений, модификаций, сценариев для популярных игр в жанре экш, рпг, гонки, стратегии, логические игры. Множество аддонов и сценариев для Microsoft Flight Simulator Большая коллекция книг, учебников. Если нет возможности купить печатное издание - смело скачивайте цифровую версию книги или, быть может, журнала. Не любите читать - можно загрузить бесплатно аудикнигу. Для веб дизайнеров и программистов так же найдется множество специализированного софта, таких как: редакторы с подсветкой, среды программирования, компоненты, системы управления базами данных, разнообразные скрипты и шаблоны. Не так давно у нас появился материал для автолюбителей и владельцев мото - оригинальные и неоригинальные каталоги запчастей, книги и журналы по ремонту и обслуживанию, видеоуроки, статьи по чип тюнингу, прошивкам. Процедура получения контента элементарная, достаточно просто скачать торрент файл и добавить его в загрузку в вашем торрент клиенте. Если у вас нет специального торрент клиента, вы можете его скачать у нас.