Планета людей (Владлен Барбэ) [1999, Россия, Музыкальный мультфильм, семейный, VHSRip] MVO 

Цитировать
Планета людей
Страна: Россия
Жанр: Музыкальный мультфильм, семейный
Продолжительность: 00:49:01
Год выпуска: 1999
Перевод: Профессиональный (многоголосый закадровый)
Русские субтитры: нет
Режиссёр: Владлен Барбэ
Роли озвучивали: Хьюм Кронин, Саша Гроним, Джеймс Эрл Джонс, Даи Даи Минг, Офелия Эссьен
Описание: Дедушка с любимой внучкой отправляется в волшебное путешествие, открывая для себя удивительный мир людей.
Ребенок с радостью узнает, что самое красивое зрелище на свете - это наша планета, и понимает, что человек - самая интересная загадка.
Выполненный ярким и доступным для понимания языком, ПЛАНЕТА ЛЮДЕЙ - это настоящий праздник, который откроет ребенку мир во всем его разнообразии.
Рассчитанный на семейную аудиторию, этот фильм станет прекрасным дополнением к Вашей домашней коллекции видеофильмов.
Доп. информация: По мотивам книги Питера Спайера. Фильм киностудии "Классика".
Мультфильм содержит анимационные истории, выполненные в разных стилях разными авторами.
Видеокассета распространялась бесплатно. Фильм, по всей видимости, создавался интернациональной командой при участии ООН, ЮНИСЕФ, правительства Москвы и прочих государственных и коммерческих структур, поэтому перевод на русский выполнен поверх английского, но титры на русском. Есть мнение, что создание мультфильма было связано с празднованием 50-летия образования ООН, и на ТВ он был показан в 1995 под названием "Люди: Музыкальный праздник" ("People: A Musical Celebration").
Саундтрек выпущен в 1995 году компанией Lightyear Entertainment в альбоме "People - A Musical Celebration of Diversity". Переиздавался в 2007.
Семпл: http://multi-up.com/1134309
Качество: VHSRip
Формат: AVI
Видео: XviD, 720x576, 25 fps, 2 897 kb/s
Аудио: MP3, 44.1 kHz, 2 ch, 128 kb/s
Субтитры: отсутствуют

Задняя обложка

Подробные технические данные

General
Complete name : Планета Людей.avi
Format : AVI
Format/Info : Audio Video Interleave
Format profile : OpenDML
File size : 1.04 GiB
Duration : 49 min 1 s
Overall bit rate : 3 041 kb/s
Writing application : Lavf57.25.100
Video
ID : 0
Format : MPEG-4 Visual
Format profile : Advanced Simple@L5
Format settings, BVOP : 3
Format settings, QPel : No
Format settings, GMC : No warppoints
Format settings, Matrix : Default (H.263)
Codec ID : XVID
Codec ID/Hint : XviD
Duration : 49 min 1 s
Bit rate : 2 897 kb/s
Width : 720 pixels
Height : 576 pixels
Display aspect ratio : 5:4
Frame rate : 25.000 FPS
Standard : PAL
Color space : YUV
Chroma subsampling : 4:2:0
Bit depth : 8 bits
Scan type : Progressive
Compression mode : Lossy
Bits/(Pixel*Frame) : 0.279
Stream size : 1 016 MiB (95%)
Writing library : XviD 67
Audio
ID : 1
Format : MPEG Audio
Format version : Version 1
Format profile : Layer 3
Mode : Joint stereo
Mode extension : MS Stereo
Codec ID : 55
Codec ID/Hint : MP3
Duration : 49 min 0 s
Bit rate mode : Constant
Bit rate : 128 kb/s
Channel(s) : 2 channels
Sampling rate : 44.1 kHz
Compression mode : Lossy
Stream size : 44.9 MiB (4%)
Alignment : Aligned on interleaves
Interleave, duration : 26 ms (0.65 video frame)
Interleave, preload duration : 26 ms

Скринлист

Вы не можете начинать темы
Вы не можете отвечать на сообщения
Вы не можете редактировать свои сообщения
Вы не можете удалять свои сообщения
Вы не можете голосовать в опросах
Вы не можете прикреплять файлы к сообщениям
Вы можете скачивать файлы
!ВНИМАНИЕ!

Сайт не предоставляет электронные версии произведений, а занимается лишь коллекционированием и каталогизацией ссылок, присылаемых и публикуемых на форуме нашими читателями. Если вы являетесь правообладателем какого-либо представленного материала и не желаете, чтобы ссылка на него находилась в нашем каталоге, свяжитесь с нами, и мы незамедлительно удалим ее. Файлы для обмена на трекере предоставлены пользователями сайта, и администрация не несет ответственности за их содержание. Просьба не заливать файлы, защищенные авторскими правами, а также файлы нелегального содержания!

Искали программы, игры, дополнения, музыка mp3, аниме, аудио книги, журналы? Добро пожаловать на свободный торрент трекер Torrents, у нас можно скачать бесплатно, без смс и регистрации и прочих ограничений лучшие, отборные сборки программ, игр. Скачать торрентом не составит труда даже не опытному пользователю. Раздачи ежедневно обновляются, только лучшие и качественные раздачи, подробные описания и скриншоты. Огромная коллекция программ для работы со звуком, графикой, дизайном, а так же множество плагинов и инструментов к ним с подробной инструкцией и рекомендациями. Прошивки для навигаторов, карты. Разнообразные игры, для Windows, Linux. В коллекцие есть и старые игры любых жанров, Rpg, Action, Shooter, strategy Множество дополнений, модификаций, сценариев для популярных игр в жанре экш, рпг, гонки, стратегии, логические игры. Множество аддонов и сценариев для Microsoft Flight Simulator Большая коллекция книг, учебников. Если нет возможности купить печатное издание - смело скачивайте цифровую версию книги или, быть может, журнала. Не любите читать - можно загрузить бесплатно аудикнигу. Для веб дизайнеров и программистов так же найдется множество специализированного софта, таких как: редакторы с подсветкой, среды программирования, компоненты, системы управления базами данных, разнообразные скрипты и шаблоны. Не так давно у нас появился материал для автолюбителей и владельцев мото - оригинальные и неоригинальные каталоги запчастей, книги и журналы по ремонту и обслуживанию, видеоуроки, статьи по чип тюнингу, прошивкам. Процедура получения контента элементарная, достаточно просто скачать торрент файл и добавить его в загрузку в вашем торрент клиенте. Если у вас нет специального торрент клиента, вы можете его скачать у нас.