(Hard Rock/AOR) [CD] Lou Gramm - Ready Or Not [Japan, 32XD-667, 1987] - 1987, FLAC (image+.cue), lossless 

Цитировать
Lou Gramm - Ready Or Not
Жанр: Hard Rock/AOR
Носитель: CD
Страна-производитель диска: Япония
Год издания: 1987
Издатель (лейбл): ATLANTIC/WARNER-PIONEER
Номер по каталогу: 32XD-667
Страна исполнителя (группы): США
Аудиокодек: FLAC (*.flac)
Тип рипа: image+.cue
Битрейт аудио: lossless
Продолжительность: 40:40
Источник (релизер): Собственный рип
Наличие сканов в содержимом раздачи: да
Треклист:
1. Ready Or Not (03:29)
2. Heartache (04:28)
3. Midnight Blue (03:57)
4. Time (03:22)
5. If I Don't Have You (04:39)
6. She's Got To Know (04:02)
7. Arrow Thru Your Heart (03:46)
8. Until I Make You Mine (03:30)
9. Chain Of Love (04:02)
10. Lover Come Back (05:19)

Лог создания рипа

Exact Audio Copy V1.3 from 2. September 2016
EAC extraction logfile from 7. August 2018, 14:09
Lou Gramm / Ready Or Not [32XD-667]
Used drive : ASUS DRW-24B3ST Adapter: 1 ID: 0
Read mode : SecureUtilize accurate stream : YesDefeat audio cache : YesMake use of C2 pointers : No
Read offset correction : 6Overread into Lead-In and Lead-Out : NoFill up missing offset samples with silence : YesDelete leading and trailing silent blocks : NoNull samples used in CRC calculations : YesUsed interface : Native Win32 interface for Win NT & 2000
Used output format : User Defined EncoderSelected bitrate : 768 kBit/sQuality : HighAdd ID3 tag : NoCommand line compressor : C:\Program Files (x86)\Exact Audio Copy\FLAC\FLAC.EXEAdditional command line options : -6 -V -T "ARTIST=%artist%" -T "TITLE=%title%" -T "ALBUM=%albumtitle%" -T "DATE=%year%" -T "TRACKNUMBER=%tracknr%" -T "GENRE=%genre%" -T "COMMENT=%comment%" -T "BAND=%albuminterpret%" -T "ALBUMARTIST=%albuminterpret%" -T "COMPOSER=%composer%" %haslyrics%--tag-from-file=LYRICS="%lyricsfile%"%haslyrics% -T "DISCNUMBER=%cdnumber%" -T "TOTALDISCS=%totalcds%" -T "TOTALTRACKS=%numtracks%" %hascover%--picture="%coverfile%"%hascover% %source% -o %dest%
TOC of the extracted CD
Track | Start | Length | Start sector | End sector --------------------------------------------------------- 1 | 0:00.37 | 3:29.53 | 37 | 15764 2 | 3:30.15 | 4:28.72 | 15765 | 35936 3 | 7:59.12 | 3:57.63 | 35937 | 53774 4 | 11:57.00 | 3:22.67 | 53775 | 68991 5 | 15:19.67 | 4:39.28 | 68992 | 89944 6 | 19:59.20 | 4:02.12 | 89945 | 108106 7 | 24:01.32 | 3:46.65 | 108107 | 125121 8 | 27:48.22 | 3:30.58 | 125122 | 140929 9 | 31:19.05 | 4:02.27 | 140930 | 159106 10 | 35:21.32 | 5:19.73 | 159107 | 183104
Range status and errors
Selected range
Filename Z:\Lou Gramm\1987 Ready Or Not\Lou Gramm - Ready Or Not [32XD-667].wav
Peak level 100.0 % Extraction speed 5.7 X Range quality 100.0 % Test CRC 673D2CC0 Copy CRC 673D2CC0 Copy OK
No errors occurred
AccurateRip summary
Track 1 accurately ripped (confidence 3) [0D74F664] (AR v2)Track 2 accurately ripped (confidence 3) [29A05F99] (AR v2)Track 3 accurately ripped (confidence 3) [843088DF] (AR v2)Track 4 accurately ripped (confidence 3) [DFAA0483] (AR v2)Track 5 accurately ripped (confidence 3) [79A00883] (AR v2)Track 6 accurately ripped (confidence 3) [E44DBA86] (AR v2)Track 7 accurately ripped (confidence 3) [19C6B7DC] (AR v2)Track 8 accurately ripped (confidence 3) [33C4A9A3] (AR v2)Track 9 accurately ripped (confidence 3) [47E3C911] (AR v2)Track 10 accurately ripped (confidence 3) [8A31CDFB] (AR v2)
All tracks accurately ripped
End of status report
---- CUETools DB Plugin V2.1.6
[CTDB TOCID: bt3_8BaOnolO_NIsm2Bu5cGdNIk-] foundSubmit result: bt3_8BaOnolO_NIsm2Bu5cGdNIk- has been confirmedTrack | CTDB Status 1 | (9/9) Accurately ripped 2 | (9/9) Accurately ripped 3 | (9/9) Accurately ripped 4 | (9/9) Accurately ripped 5 | (9/9) Accurately ripped 6 | (9/9) Accurately ripped 7 | (9/9) Accurately ripped 8 | (9/9) Accurately ripped 9 | (9/9) Accurately ripped 10 | (9/9) Accurately ripped
==== Log checksum 7309AF409BCAC7987DE3FD80EA8A2C86BDF8DED1A2F0A66D626E8373B42FC716 ====
Вы не можете начинать темы
Вы не можете отвечать на сообщения
Вы не можете редактировать свои сообщения
Вы не можете удалять свои сообщения
Вы не можете голосовать в опросах
Вы не можете прикреплять файлы к сообщениям
Вы можете скачивать файлы
!ВНИМАНИЕ!

Сайт не предоставляет электронные версии произведений, а занимается лишь коллекционированием и каталогизацией ссылок, присылаемых и публикуемых на форуме нашими читателями. Если вы являетесь правообладателем какого-либо представленного материала и не желаете, чтобы ссылка на него находилась в нашем каталоге, свяжитесь с нами, и мы незамедлительно удалим ее. Файлы для обмена на трекере предоставлены пользователями сайта, и администрация не несет ответственности за их содержание. Просьба не заливать файлы, защищенные авторскими правами, а также файлы нелегального содержания!

Искали программы, игры, дополнения, музыка mp3, аниме, аудио книги, журналы? Добро пожаловать на свободный торрент трекер Torrents, у нас можно скачать бесплатно, без смс и регистрации и прочих ограничений лучшие, отборные сборки программ, игр. Скачать торрентом не составит труда даже не опытному пользователю. Раздачи ежедневно обновляются, только лучшие и качественные раздачи, подробные описания и скриншоты. Огромная коллекция программ для работы со звуком, графикой, дизайном, а так же множество плагинов и инструментов к ним с подробной инструкцией и рекомендациями. Прошивки для навигаторов, карты. Разнообразные игры, для Windows, Linux. В коллекцие есть и старые игры любых жанров, Rpg, Action, Shooter, strategy Множество дополнений, модификаций, сценариев для популярных игр в жанре экш, рпг, гонки, стратегии, логические игры. Множество аддонов и сценариев для Microsoft Flight Simulator Большая коллекция книг, учебников. Если нет возможности купить печатное издание - смело скачивайте цифровую версию книги или, быть может, журнала. Не любите читать - можно загрузить бесплатно аудикнигу. Для веб дизайнеров и программистов так же найдется множество специализированного софта, таких как: редакторы с подсветкой, среды программирования, компоненты, системы управления базами данных, разнообразные скрипты и шаблоны. Не так давно у нас появился материал для автолюбителей и владельцев мото - оригинальные и неоригинальные каталоги запчастей, книги и журналы по ремонту и обслуживанию, видеоуроки, статьи по чип тюнингу, прошивкам. Процедура получения контента элементарная, достаточно просто скачать торрент файл и добавить его в загрузку в вашем торрент клиенте. Если у вас нет специального торрент клиента, вы можете его скачать у нас.