(Melodic Hard Rock | Hard & Heavy) [WEB] Outloud - Virtual Hero Society - 2018, FLAC (tracks), lossless 

Цитировать
Outloud / Virtual Hero Society

Жанр: Melodic Hard Rock (Hard & Heavy)
Носитель: WEB
Год издания: 2018
Издатель (лейбл): Rock Of Angels Records
Страна исполнителя (группы): Greece
Аудиокодек: FLAC (*.flac)
Тип рипа: tracks
Битрейт аудио: lossless
Продолжительность: 00:49:28
Источник (релизер): www
Наличие сканов в содержимом раздачи: нет
Треклист:
01. Fools' Train (4:42)
02. My Promise (3:58)
03. Virtual Heroes (4:01)
04. I Am the One (4:24)
05. Share My Dreams (4:09)
06. World-Go-Round (4:26)
07. We Got Tonite (4:19)
08. Borrowed Time (4:22)
09. Live with It (4:26)
10. ...And I Tried (4:08)
11. Fallen Love (2:49)
12. Fight on! (3:50)

Лог проверки качества

-----------------------
DON'T MODIFY THIS FILE
-----------------------
PERFORMER: auCDtect Task Manager, ver. 1.6.0 RC1 build 1.6.0.1Copyright (c) 2008-2010 y-soft. All rights reservedhttp://y-soft.org
ANALYZER: auCDtect: CD records authenticity detector, version 0.8.2Copyright (c) 2004 Oleg Berngardt. All rights reserved.Copyright (c) 2004 Alexander Djourik. All rights reserved.
FILE: 12. Fight on!.flac Size: 31915793 Hash: D87D65D4D39AE64845DDD4269E52FB20 Accuracy: -m0 Conclusion: CDDA 100% Signature: F9A3A53A2A108B784EAC40BBE1F0B17576186D64FILE: 11. Fallen Love.flac Size: 18922077 Hash: 4DAD135DBA93DF27007B7E8D8F7658EF Accuracy: -m0 Conclusion: CDDA 100% Signature: D7A5933DAE35F0BD455327E3A77C19698B17AE25FILE: 10. ...And I Tried.flac Size: 34224385 Hash: CB207523C1080AF2C9F06E4BBFDF6597 Accuracy: -m0 Conclusion: CDDA 99% Signature: 8B52632450715DE7F15CF30D3C552C7313AADED2FILE: 09. Live with It.flac Size: 36346797 Hash: 5D30D05CF275D6386003D814332AFE0D Accuracy: -m0 Conclusion: CDDA 100% Signature: 2E92082E0A922803947FF1E2B84C35C0D1DC3575FILE: 08. Borrowed Time.flac Size: 35633047 Hash: 1215578CE8C26503A0CD76A29FCC1F1B Accuracy: -m0 Conclusion: CDDA 99% Signature: 491856E50F2BFB3C46D8066727779CF21BE82DD8FILE: 07. We Got Tonite.flac Size: 33303678 Hash: 5B5561A2292CCC10AAF27AD38EBA1D84 Accuracy: -m0 Conclusion: CDDA 100% Signature: F4B3CB056E59E61D9B612534501663EA3EDF87E9FILE: 06. World-Go-Round.flac Size: 36422873 Hash: DCFE2222D54CC2D2DD71935EB3A1A1DE Accuracy: -m0 Conclusion: CDDA 100% Signature: ACED4B950B50E62A2785244E65DEADF581A9205DFILE: 05. Share My Dreams.flac Size: 31275106 Hash: AA4B6328DC5D0B018E16AF850A1AA607 Accuracy: -m0 Conclusion: CDDA 100% Signature: 05B4B75F823F8F8BFE482FE1334625E6664ED525FILE: 04. I Am the One.flac Size: 36127590 Hash: E591D3FC447A747A6A9CB51A5B219808 Accuracy: -m0 Conclusion: CDDA 100% Signature: E87FABC53D078A4A85DD13886E7A0304A7178F71FILE: 03. Virtual Heroes.flac Size: 31976350 Hash: 795679F43908965D4133E9D669F9D514 Accuracy: -m0 Conclusion: CDDA 100% Signature: 5A794F044409D7A24DE3707BCA5F3EF61BBB3FC8FILE: 02. My Promise.flac Size: 33062831 Hash: B0D783F490A02F75DE33A7FFF9E1AC3B Accuracy: -m0 Conclusion: CDDA 100% Signature: E98CC7E01010F339CCD057825F25F7579EB265B4FILE: 01. Fools' Train.flac Size: 39028836 Hash: 8D07AE83F9CCECF56DA7A78E90E0A246 Accuracy: -m0 Conclusion: CDDA 100% Signature: 1EA30BA93B18C8A538791A04C1D68100510117A1

Лог DRM

foobar2000 1.2.9 / Dynamic Range Meter 1.1.1log date: 2018-09-14 22:35:53
--------------------------------------------------------------------------------Analyzed: Outloud / Virtual Hero Society--------------------------------------------------------------------------------
DR Peak RMS Duration Track--------------------------------------------------------------------------------DR5 -0.05 dB -6.00 dB 4:42 01-Fools' TrainDR6 -0.04 dB -6.40 dB 3:58 02-My PromiseDR5 0.00 dB -6.27 dB 4:01 03-Virtual HeroesDR6 -0.02 dB -7.01 dB 4:24 04-I Am the OneDR6 -0.04 dB -7.86 dB 4:09 05-Share My DreamsDR6 -0.05 dB -7.06 dB 4:26 06-World-Go-RoundDR5 -0.05 dB -6.44 dB 4:19 07-We Got ToniteDR6 -0.04 dB -6.75 dB 4:22 08-Borrowed TimeDR5 -0.06 dB -6.32 dB 4:26 09-Live with ItDR6 -0.05 dB -6.58 dB 4:08 10-...And I TriedDR11 -0.59 dB -12.57 dB 2:49 11-Fallen LoveDR6 -0.06 dB -6.16 dB 3:50 12-Fight on!--------------------------------------------------------------------------------
Number of tracks: 12Official DR value: DR6
Samplerate: 44100 HzChannels: 2Bits per sample: 16Bitrate: 1083 kbpsCodec: FLAC================================================================================

Состав:

Jim Kyritsis - Guitars
Bob Katsionis - Guitars (lead), Keyboards (Bob Katsionis, Burnt City, Constantine, Firewind, Ioannis Anastassakis, Teo Ross, ex-Encomium, ex-Imaginery, ex-Retrospect, ex-Revolution Renaissance, ex-Zion, ex-Mirage, ex-Skyward, ex-Acid Death, ex-Casus Belli, ex-Karmic Link, ex-Nightfall, ex-Perpetual, ex-Serious Black, ex-Deviser (live), ex-Septicflesh (live), ex-Star Queen, ex-Fatal Morgana, ex-Jade Lizard, ex-Lighthunters)
Chandler Mogel - Vocals (Porphyra, Theater of the Absurd, Two Hundred Feet, Chrome Public, Cities, Dangered Ace, NYC Outlaws, Talon, Until Destiny, ex-Legion)
Sverd - Bass (AmongRuins, Battleroar, ex-Bare Infinity, ex-The Silent Rage)
Thanos Pappas - Drums (Disharmony, Scar of the Sun, Fire and Steel, ex-Bigus Dickus)
Вы не можете начинать темы
Вы не можете отвечать на сообщения
Вы не можете редактировать свои сообщения
Вы не можете удалять свои сообщения
Вы не можете голосовать в опросах
Вы не можете прикреплять файлы к сообщениям
Вы можете скачивать файлы
!ВНИМАНИЕ!

Сайт не предоставляет электронные версии произведений, а занимается лишь коллекционированием и каталогизацией ссылок, присылаемых и публикуемых на форуме нашими читателями. Если вы являетесь правообладателем какого-либо представленного материала и не желаете, чтобы ссылка на него находилась в нашем каталоге, свяжитесь с нами, и мы незамедлительно удалим ее. Файлы для обмена на трекере предоставлены пользователями сайта, и администрация не несет ответственности за их содержание. Просьба не заливать файлы, защищенные авторскими правами, а также файлы нелегального содержания!

Искали программы, игры, дополнения, музыка mp3, аниме, аудио книги, журналы? Добро пожаловать на свободный торрент трекер Torrents, у нас можно скачать бесплатно, без смс и регистрации и прочих ограничений лучшие, отборные сборки программ, игр. Скачать торрентом не составит труда даже не опытному пользователю. Раздачи ежедневно обновляются, только лучшие и качественные раздачи, подробные описания и скриншоты. Огромная коллекция программ для работы со звуком, графикой, дизайном, а так же множество плагинов и инструментов к ним с подробной инструкцией и рекомендациями. Прошивки для навигаторов, карты. Разнообразные игры, для Windows, Linux. В коллекцие есть и старые игры любых жанров, Rpg, Action, Shooter, strategy Множество дополнений, модификаций, сценариев для популярных игр в жанре экш, рпг, гонки, стратегии, логические игры. Множество аддонов и сценариев для Microsoft Flight Simulator Большая коллекция книг, учебников. Если нет возможности купить печатное издание - смело скачивайте цифровую версию книги или, быть может, журнала. Не любите читать - можно загрузить бесплатно аудикнигу. Для веб дизайнеров и программистов так же найдется множество специализированного софта, таких как: редакторы с подсветкой, среды программирования, компоненты, системы управления базами данных, разнообразные скрипты и шаблоны. Не так давно у нас появился материал для автолюбителей и владельцев мото - оригинальные и неоригинальные каталоги запчастей, книги и журналы по ремонту и обслуживанию, видеоуроки, статьи по чип тюнингу, прошивкам. Процедура получения контента элементарная, достаточно просто скачать торрент файл и добавить его в загрузку в вашем торрент клиенте. Если у вас нет специального торрент клиента, вы можете его скачать у нас.