(Melodic Rock | AOR) [CD] Tradia - Trade Winds - 1988/?, FLAC (image+.cue), lossless 

Цитировать
Tradia / Trade Winds
Жанр: Melodic Rock | AOR
Носитель: CD
Страна-производитель диска (релиза): Russia
Год издания: 1988/?
Издатель (лейбл): FM Records
Номер по каталогу: WKHD FM 108
Страна исполнителя (группы): USA
Аудиокодек: FLAC (*.flac)
Тип рипа: image+.cue
Битрейт аудио: lossless
Продолжительность: 38:48
Источник (релизер): мой диск
Наличие сканов в содержимом раздачи: да
Треклист:
01. Sweet Sixteen (3:16)
02. Never Gonna Go (4:59)
03. Let's Not Turn Love Away (3:57)
04. Without You (3:29)
05. Look Away (4:07)
06. No Pain, No Gain (3:16)
07. Stand Your Ground (2:40)
08. Don't Play Your Ace (3:15)
09. Take The Chance (3:15)
10. You've Got Me Crying (3:10)
11. Exiles (3:23)

Лог создания рипа

Exact Audio Copy V1.3 from 2. September 2016
EAC extraction logfile from 24. August 2018, 11:20
Tradia / Trade Winds
Used drive : TSSTcorpCDDVDW SH-S222A Adapter: 1 ID: 0
Read mode : SecureUtilize accurate stream : YesDefeat audio cache : YesMake use of C2 pointers : No
Read offset correction : 6Overread into Lead-In and Lead-Out : NoFill up missing offset samples with silence : YesDelete leading and trailing silent blocks : NoNull samples used in CRC calculations : YesUsed interface : Native Win32 interface for Win NT & 2000
Used output format : User Defined EncoderSelected bitrate : 896 kBit/sQuality : HighAdd ID3 tag : NoCommand line compressor : C:\Program Files\Exact Audio Copy\FLAC\FLAC.EXEAdditional command line options : -6 -V -T "ARTIST=%artist%" -T "TITLE=%title%" -T "ALBUM=%albumtitle%" -T "DATE=%year%" -T "TRACKNUMBER=%tracknr%" -T "GENRE=%genre%" -T "COMMENT=%comment%" -T "BAND=%albuminterpret%" -T "ALBUMARTIST=%albuminterpret%" -T "COMPOSER=%composer%" %haslyrics%--tag-from-file=LYRICS="%lyricsfile%"%haslyrics% -T "DISCNUMBER=%cdnumber%" -T "TOTALDISCS=%totalcds%" -T "TOTALTRACKS=%numtracks%" %hascover%--picture="%coverfile%"%hascover% %source% -o %dest%
TOC of the extracted CD
Track | Start | Length | Start sector | End sector --------------------------------------------------------- 1 | 0:00.00 | 3:16.25 | 0 | 14724 2 | 3:16.25 | 4:58.50 | 14725 | 37124 3 | 8:15.00 | 3:57.37 | 37125 | 54936 4 | 12:12.37 | 3:29.13 | 54937 | 70624 5 | 15:41.50 | 4:06.63 | 70625 | 89137 6 | 19:48.38 | 3:16.37 | 89138 | 103874 7 | 23:05.00 | 2:39.38 | 103875 | 115837 8 | 25:44.38 | 3:15.37 | 115838 | 130499 9 | 29:00.00 | 3:15.25 | 130500 | 145149 10 | 32:15.25 | 3:09.38 | 145150 | 159362 11 | 35:24.63 | 3:23.37 | 159363 | 174624
Range status and errors
Selected range
Filename D:\Music\Мои раздачи\Tradia - Trade Winds.wav
Peak level 100.0 % Extraction speed 6.7 X Range quality 99.9 % Test CRC 2E86450E Copy CRC 2E86450E Copy OK
No errors occurred
AccurateRip summary
Track 1 accurately ripped (confidence 1) [90DFB576] (AR v2)Track 2 accurately ripped (confidence 1) [0BE359C3] (AR v2)Track 3 accurately ripped (confidence 1) [E3700E15] (AR v2)Track 4 accurately ripped (confidence 1) [6E81F6D9] (AR v2)Track 5 accurately ripped (confidence 1) [CE351F08] (AR v2)Track 6 accurately ripped (confidence 1) [D8264996] (AR v2)Track 7 accurately ripped (confidence 1) [D1E49955] (AR v2)Track 8 accurately ripped (confidence 1) [274F2162] (AR v2)Track 9 accurately ripped (confidence 1) [AB3A7141] (AR v2)Track 10 accurately ripped (confidence 1) [5668BA2E] (AR v2)Track 11 accurately ripped (confidence 1) [721FB1FA] (AR v2)
All tracks accurately ripped
End of status report
---- CUETools DB Plugin V2.1.6
[CTDB TOCID: wOmLjxkNWUSsvO8OnUHFz775dsQ-] foundSubmit result: wOmLjxkNWUSsvO8OnUHFz775dsQ- has been confirmedTrack | CTDB Status 1 | (5/5) Accurately ripped 2 | (5/5) Accurately ripped 3 | (5/5) Accurately ripped 4 | (5/5) Accurately ripped 5 | (5/5) Accurately ripped 6 | (5/5) Accurately ripped 7 | (5/5) Accurately ripped 8 | (5/5) Accurately ripped 9 | (5/5) Accurately ripped 10 | (5/5) Accurately ripped 11 | (5/5) Accurately ripped
==== Log checksum 7C150AFF06CD1AA7D41D8F8BE2B83314238B0FA590A6F4100C05B75169A2BDD7 ====

Лог проверки качества

-----------------------
DON'T MODIFY THIS FILE
-----------------------
PERFORMER: auCDtect Task Manager, ver. 1.6.0 RC1 build 1.6.0.1Copyright (c) 2008-2010 y-soft. All rights reservedhttp://y-soft.org
ANALYZER: auCDtect: CD records authenticity detector, version 0.8.2Copyright (c) 2004 Oleg Berngardt. All rights reserved.Copyright (c) 2004 Alexander Djourik. All rights reserved.
FILE: Tradia - Trade Winds.flac Size: 272679781 Hash: 86165E640DD21AAD1530A8AA67502343 Accuracy: -m0 Conclusion: CDDA 100% Signature: 7F7C03925EA4244D00CF69035EB2B8AB9E335AF6

Скриншот спектра частот

Лог DRM

foobar2000 1.2.9 / Dynamic Range Meter 1.1.1log date: 2018-08-24 21:12:35
--------------------------------------------------------------------------------Analyzed: Tradia / Trade Winds--------------------------------------------------------------------------------
DR Peak RMS Duration Track--------------------------------------------------------------------------------DR15 0.00 dB -18.12 dB 3:16 01-Sweet SixteenDR12 -2.85 dB -16.85 dB 4:59 02-Never Gonna GoDR12 -2.59 dB -16.98 dB 3:57 03-Let's Not Turn Love AwayDR12 -3.03 dB -17.80 dB 3:29 04-Without YouDR12 -0.67 dB -15.13 dB 4:07 05-Look AwayDR13 -2.30 dB -16.90 dB 3:16 06-No Pain, No GainDR12 -2.55 dB -16.82 dB 2:40 07-Stand Your GroundDR12 -2.20 dB -16.57 dB 3:15 08-Don't Play Your AceDR13 -1.96 dB -17.05 dB 3:15 09-Take The ChanceDR12 -3.83 dB -18.35 dB 3:10 10-You've Got Me CryingDR12 -2.31 dB -17.26 dB 3:23 11-Exiles--------------------------------------------------------------------------------
Number of tracks: 11Official DR value: DR12
Samplerate: 44100 HzChannels: 2Bits per sample: 16Bitrate: 936 kbpsCodec: FLAC================================================================================
Доп. информация: Первый студийный альбом группы.
Вы не можете начинать темы
Вы не можете отвечать на сообщения
Вы не можете редактировать свои сообщения
Вы не можете удалять свои сообщения
Вы не можете голосовать в опросах
Вы не можете прикреплять файлы к сообщениям
Вы можете скачивать файлы
!ВНИМАНИЕ!

Сайт не предоставляет электронные версии произведений, а занимается лишь коллекционированием и каталогизацией ссылок, присылаемых и публикуемых на форуме нашими читателями. Если вы являетесь правообладателем какого-либо представленного материала и не желаете, чтобы ссылка на него находилась в нашем каталоге, свяжитесь с нами, и мы незамедлительно удалим ее. Файлы для обмена на трекере предоставлены пользователями сайта, и администрация не несет ответственности за их содержание. Просьба не заливать файлы, защищенные авторскими правами, а также файлы нелегального содержания!

Искали программы, игры, дополнения, музыка mp3, аниме, аудио книги, журналы? Добро пожаловать на свободный торрент трекер Torrents, у нас можно скачать бесплатно, без смс и регистрации и прочих ограничений лучшие, отборные сборки программ, игр. Скачать торрентом не составит труда даже не опытному пользователю. Раздачи ежедневно обновляются, только лучшие и качественные раздачи, подробные описания и скриншоты. Огромная коллекция программ для работы со звуком, графикой, дизайном, а так же множество плагинов и инструментов к ним с подробной инструкцией и рекомендациями. Прошивки для навигаторов, карты. Разнообразные игры, для Windows, Linux. В коллекцие есть и старые игры любых жанров, Rpg, Action, Shooter, strategy Множество дополнений, модификаций, сценариев для популярных игр в жанре экш, рпг, гонки, стратегии, логические игры. Множество аддонов и сценариев для Microsoft Flight Simulator Большая коллекция книг, учебников. Если нет возможности купить печатное издание - смело скачивайте цифровую версию книги или, быть может, журнала. Не любите читать - можно загрузить бесплатно аудикнигу. Для веб дизайнеров и программистов так же найдется множество специализированного софта, таких как: редакторы с подсветкой, среды программирования, компоненты, системы управления базами данных, разнообразные скрипты и шаблоны. Не так давно у нас появился материал для автолюбителей и владельцев мото - оригинальные и неоригинальные каталоги запчастей, книги и журналы по ремонту и обслуживанию, видеоуроки, статьи по чип тюнингу, прошивкам. Процедура получения контента элементарная, достаточно просто скачать торрент файл и добавить его в загрузку в вашем торрент клиенте. Если у вас нет специального торрент клиента, вы можете его скачать у нас.