(Rock | Melodic Rock | Lite NWOBHM) [CD] Notorious - Radio Silence - 1985 (2010), FLAC (tracks+.cue), lossless 

Цитировать
Notorious / Radio Silence

Жанр: Rock | Melodic Rock | Lite NWOBHM
Носитель: CD
Страна-производитель диска (релиза): Eu
Год издания: 1985 (2010)
Издатель (лейбл): Angel Air Records
Номер по каталогу: SJPCD332
Страна исполнителя (группы): UK
Аудиокодек: FLAC (*.flac)
Тип рипа: tracks+.cue
Битрейт аудио: lossless
Продолжительность: 57:13
Источник (релизер): Goldy
Наличие сканов в содержимом раздачи: да
Треклист:
01. Radio Silence (3:54)
02. The S'Walk (3:51)
03. Arianne (3:33)
04. You Need More (3:41)
05. Better The Devil You Know (3:50)
06. Do Like A Man (4:06)
07. Losing You (3:39)
08. It's Energy (3:14)
09. The Game's Up (4:13)
10. Eyes Of The World (3:51)
11. I Believe In You (4:37)
12. Touch (3:53)
13. Soul On Fire (3:34)
14. Love Fades (3:39)
15. Good Times (3:38)

Лог создания рипа

Exact Audio Copy V1.0 beta 3 from 29. August 2011
EAC extraction logfile from 25. April 2012, 17:09
Notorious / Radio Silence
Used drive : Optiarc DVD RW AD-7203S Adapter: 0 ID: 0
Read mode : SecureUtilize accurate stream : YesDefeat audio cache : YesMake use of C2 pointers : No
Read offset correction : 48Overread into Lead-In and Lead-Out : NoFill up missing offset samples with silence : YesDelete leading and trailing silent blocks : NoNull samples used in CRC calculations : YesUsed interface : Native Win32 interface for Win NT & 2000Gap handling : Appended to previous track
Used output format : User Defined EncoderSelected bitrate : 768 kBit/sQuality : HighAdd ID3 tag : NoCommand line compressor : C:\Program Files\Exact Audio Copy\FLAC\FLAC.EXEAdditional command line options : -V -8 -T "Genre=%genre%" -T "Artist=%artist%" -T "Title=%title%" -T "Album=%albumtitle%" -T "Date=%year%" -T "Tracknumber=%tracknr%" -T "Comment=%comment%" %source%
TOC of the extracted CD
Track | Start | Length | Start sector | End sector --------------------------------------------------------- 1 | 0:00.00 | 3:54.16 | 0 | 17565 2 | 3:54.16 | 3:50.70 | 17566 | 34885 3 | 7:45.11 | 3:33.06 | 34886 | 50866 4 | 11:18.17 | 3:40.54 | 50867 | 67420 5 | 14:58.71 | 3:50.04 | 67421 | 84674 6 | 18:49.00 | 4:05.38 | 84675 | 103087 7 | 22:54.38 | 3:38.44 | 103088 | 119481 8 | 26:33.07 | 3:14.09 | 119482 | 134040 9 | 29:47.16 | 4:12.72 | 134041 | 153012 10 | 34:00.13 | 3:50.60 | 153013 | 170322 11 | 37:50.73 | 4:36.69 | 170323 | 191091 12 | 42:27.67 | 3:52.57 | 191092 | 208548 13 | 46:20.49 | 3:33.64 | 208549 | 224587 14 | 49:54.38 | 3:38.53 | 224588 | 240990 15 | 53:33.16 | 3:38.33 | 240991 | 257373
Track 1
Filename G:\FLAC\01 - Radio Silence.wav
Pre-gap length 0:00:02.00
Peak level 100.0 % Extraction speed 2.3 X Track quality 100.0 % Test CRC 699238FA Copy CRC 699238FA Accurately ripped (confidence 1) [F62A2839] (AR v1) Copy OK
Track 2
Filename G:\FLAC\02 - The S'Walk.wav
Peak level 100.0 % Extraction speed 2.5 X Track quality 100.0 % Test CRC 02CC3C78 Copy CRC 02CC3C78 Accurately ripped (confidence 1) [4C0B8D93] (AR v1) Copy OK
Track 3
Filename G:\FLAC\03 - Arianne.wav
Peak level 100.0 % Extraction speed 2.7 X Track quality 100.0 % Test CRC 99B66F58 Copy CRC 99B66F58 Accurately ripped (confidence 1) [7DEC9F48] (AR v1) Copy OK
Track 4
Filename G:\FLAC\04 - You Need More.wav
Peak level 100.0 % Extraction speed 2.9 X Track quality 100.0 % Test CRC 8F8FFE2E Copy CRC 8F8FFE2E Accurately ripped (confidence 1) [6A6AE5FD] (AR v1) Copy OK
Track 5
Filename G:\FLAC\05 - Better The Devil You Know.wav
Peak level 100.0 % Extraction speed 2.8 X Track quality 99.9 % Test CRC 269F47A9 Copy CRC 269F47A9 Accurately ripped (confidence 1) [023B4530] (AR v1) Copy OK
Track 6
Filename G:\FLAC\06 - Do Like A Man.wav
Peak level 100.0 % Extraction speed 3.4 X Track quality 100.0 % Test CRC 13D5C02F Copy CRC 13D5C02F Accurately ripped (confidence 1) [EC2FDC16] (AR v1) Copy OK
Track 7
Filename G:\FLAC\07 - Losing You.wav
Peak level 100.0 % Extraction speed 3.5 X Track quality 100.0 % Test CRC 5D0C3B04 Copy CRC 5D0C3B04 Accurately ripped (confidence 1) [2DA5CCFC] (AR v1) Copy OK
Track 8
Filename G:\FLAC\08 - It's Energy.wav
Peak level 100.0 % Extraction speed 3.5 X Track quality 100.0 % Test CRC 20CF43EA Copy CRC 20CF43EA Accurately ripped (confidence 1) [BCD67E0F] (AR v1) Copy OK
Track 9
Filename G:\FLAC\09 - The Game's Up.wav
Peak level 100.0 % Extraction speed 3.4 X Track quality 99.9 % Test CRC 7E30D4DE Copy CRC 7E30D4DE Accurately ripped (confidence 1) [02E3ADC3] (AR v1) Copy OK
Track 10
Filename G:\FLAC\10 - Eyes Of The World.wav
Peak level 100.0 % Extraction speed 4.0 X Track quality 100.0 % Test CRC BDB94112 Copy CRC BDB94112 Accurately ripped (confidence 1) [E22A018B] (AR v1) Copy OK
Track 11
Filename G:\FLAC\11 - I Believe In You.wav
Peak level 100.0 % Extraction speed 4.3 X Track quality 100.0 % Test CRC 15323CE9 Copy CRC 15323CE9 Accurately ripped (confidence 1) [F3553595] (AR v1) Copy OK
Track 12
Filename G:\FLAC\12 - Touch.wav
Peak level 100.0 % Extraction speed 3.8 X Track quality 99.9 % Test CRC 9224CC78 Copy CRC 9224CC78 Accurately ripped (confidence 1) [43079C9A] (AR v1) Copy OK
Track 13
Filename G:\FLAC\13 - Soul On Fire.wav
Peak level 100.0 % Extraction speed 0.6 X Track quality 100.0 % Test CRC 3FD57A0B Copy CRC 3FD57A0B Accurately ripped (confidence 1) [BFD1F2BF] (AR v1) Copy OK
Track 14
Filename G:\FLAC\14 - Love Fades.wav
Peak level 100.0 % Extraction speed 4.5 X Track quality 100.0 % Test CRC C9A0826D Copy CRC C9A0826D Accurately ripped (confidence 1) [3A607016] (AR v1) Copy OK
Track 15
Filename G:\FLAC\15 - Good Times.wav
Peak level 100.0 % Extraction speed 4.1 X Track quality 99.9 % Test CRC A591ECCD Copy CRC A591ECCD Accurately ripped (confidence 1) [D7A90EDA] (AR v1) Copy OK
All tracks accurately ripped
No errors occurred
End of status report
==== Log checksum B37C1B106E80F53F3F5BC549CB7BC26267B55C67FFF8B90C799EC54A8269D66A ====

Содержание индексной карты (.CUE)

REM GENRE RockREM DATE 2010REM DISCID DA0D670FREM COMMENT "ExactAudioCopy v1.0b3"PERFORMER "Notorious"TITLE "Radio Silence"FILE "01 - Radio Silence.wav" WAVE  TRACK 01 AUDIO    TITLE "Radio Silence"    PERFORMER "Notorious"    INDEX 01 00:00:00FILE "02 - The S'Walk.wav" WAVE  TRACK 02 AUDIO    TITLE "The S'Walk"    PERFORMER "Notorious"    INDEX 01 00:00:00FILE "03 - Arianne.wav" WAVE  TRACK 03 AUDIO    TITLE "Arianne"    PERFORMER "Notorious"    INDEX 01 00:00:00FILE "04 - You Need More.wav" WAVE  TRACK 04 AUDIO    TITLE "You Need More"    PERFORMER "Notorious"    INDEX 01 00:00:00FILE "05 - Better The Devil You  Know.wav" WAVE  TRACK 05 AUDIO    TITLE "Better The Devil You  Know"    PERFORMER "Notorious"    INDEX 01 00:00:00FILE "06 - Do Like A Man.wav" WAVE  TRACK 06 AUDIO    TITLE "Do Like A Man"    PERFORMER "Notorious"    INDEX 01 00:00:00FILE "07 - Losing You.wav" WAVE  TRACK 07 AUDIO    TITLE "Losing You"    PERFORMER "Notorious"    INDEX 01 00:00:00FILE "08 - It's Energy.wav" WAVE  TRACK 08 AUDIO    TITLE "It's Energy"    PERFORMER "Notorious"    INDEX 01 00:00:00FILE "09 - The Game's Up.wav" WAVE  TRACK 09 AUDIO    TITLE "The Game's Up "    PERFORMER "Notorious"    INDEX 01 00:00:00FILE "10 - Eyes Of The World.wav" WAVE  TRACK 10 AUDIO    TITLE "Eyes Of The World"    PERFORMER "Notorious"    INDEX 01 00:00:00FILE "11 - I Believe In You.wav" WAVE  TRACK 11 AUDIO    TITLE "I Believe In You"    PERFORMER "Notorious"    INDEX 01 00:00:00FILE "12 - Touch.wav" WAVE  TRACK 12 AUDIO    TITLE "Touch"    PERFORMER "Notorious"    INDEX 01 00:00:00FILE "13 - Soul On Fire.wav" WAVE  TRACK 13 AUDIO    TITLE "Soul On Fire"    PERFORMER "Notorious"    INDEX 01 00:00:00FILE "14 - Love Fades.wav" WAVE  TRACK 14 AUDIO    TITLE "Love Fades"    PERFORMER "Notorious"    INDEX 01 00:00:00FILE "15 - Good Times.wav" WAVE  TRACK 15 AUDIO    TITLE "Good Times"    PERFORMER "Notorious"    INDEX 01 00:00:00

Лог проверки качества

-----------------------
DON'T MODIFY THIS FILE
-----------------------
PERFORMER: auCDtect Task Manager, ver. 1.6.0 RC1 build 1.6.0.1Copyright (c) 2008-2010 y-soft. All rights reservedhttp://y-soft.org
ANALYZER: auCDtect: CD records authenticity detector, version 0.8.2Copyright (c) 2004 Oleg Berngardt. All rights reserved.Copyright (c) 2004 Alexander Djourik. All rights reserved.
FILE: 15 - Good Times.flac Size: 26479516 Hash: 965B70791469DAD1722D920BC9E6D508 Accuracy: -m0 Conclusion: CDDA 100% Signature: C9B827FD9436600287A57A97530F7F74F23EB2C3FILE: 14 - Love Fades.flac Size: 25934475 Hash: 6D887278FEED95FBEE5A5FBBA3A653D4 Accuracy: -m0 Conclusion: CDDA 100% Signature: FDBE363B37E662EC3E2C63D23444CE4658E401A6FILE: 13 - Soul On Fire.flac Size: 25911614 Hash: A0FF31E6A27F816445BE10546699D567 Accuracy: -m0 Conclusion: CDDA 100% Signature: 346BF667FAA48678F5E145B5A4CCE334E9F05537FILE: 12 - Touch.flac Size: 27385281 Hash: 5F2A5AEB8802D29A009AC2D67E69B5BC Accuracy: -m0 Conclusion: CDDA 100% Signature: 4F12FD4536A62A83D34DC7D82A209291ECA344B0FILE: 11 - I Believe In You.flac Size: 32406316 Hash: F8B45B1FC9D26AEECA110AC66303CC10 Accuracy: -m0 Conclusion: CDDA 100% Signature: 028C32C5FB3847FBADACC01719B3BB1EB17A3E30FILE: 10 - Eyes Of The World.flac Size: 28879623 Hash: 0CDD90F56C2A9F0780AA62EB3A767C59 Accuracy: -m0 Conclusion: CDDA 100% Signature: 59CE2E1709F34E1B09AA58C7DB4EACDFAE321307FILE: 09 - The Game's Up.flac Size: 30094990 Hash: 580BF17D18E0DC9533BAE8B425E26811 Accuracy: -m0 Conclusion: CDDA 100% Signature: 407F4D0D56BB4F76CBDBFC48FE1D3E49B3A955E5FILE: 08 - It's Energy.flac Size: 23162834 Hash: E847C5566C5F5B2098F65150EB32DC68 Accuracy: -m0 Conclusion: CDDA 100% Signature: 1C4339DCDE4B93E7992629BE3149264FD1D08B2EFILE: 07 - Losing You.flac Size: 24959048 Hash: FFAFD22AAB3633130E3CA9D4F4DE1B66 Accuracy: -m0 Conclusion: CDDA 100% Signature: DDFD607A509EDC4FA934823CFAA3BBBFF96CCF20FILE: 06 - Do Like A Man.flac Size: 29663253 Hash: 4D1F23B675E3018B2BDBC5A388BE4109 Accuracy: -m0 Conclusion: CDDA 100% Signature: C09026ADB98ED5128AE2E63EA4E7D628E72ACFCAFILE: 05 - Better The Devil You Know.flac Size: 27059247 Hash: 2DF73B1F032829869DF4ACDADB5390E0 Accuracy: -m0 Conclusion: CDDA 99% Signature: D9B63C2C438A175B5DFC8521AE7FAB2CF17BE0C9FILE: 04 - You Need More.flac Size: 25728848 Hash: 05FE11043FFD5551F9D0A5FB39D66086 Accuracy: -m0 Conclusion: CDDA 100% Signature: 63D917493916C08361D7212DDBD35FCEC859AD61FILE: 03 - Arianne.flac Size: 25204640 Hash: 6859CADF11A325B758091EA9A85886FD Accuracy: -m0 Conclusion: CDDA 100% Signature: CEED5DD561DE151CAFDCB16DC189E3B2BDEDBFE7FILE: 02 - The S'Walk.flac Size: 26723554 Hash: 740E6B235E69F6D4D176FA01EE416D5B Accuracy: -m0 Conclusion: CDDA 100% Signature: 60C7DA2B6008E129234151B96AB4F4B63F14315AFILE: 01 - Radio Silence.flac Size: 28897271 Hash: 9865C95E29E4830F903352EA4C7FBDF9 Accuracy: -m0 Conclusion: CDDA 100% Signature: 64ACF4ADA9121CC58F8853CBCD5F864A270873A3

Лог DRM

foobar2000 1.2.9 / Dynamic Range Meter 1.1.1log date: 2018-08-11 19:08:33
--------------------------------------------------------------------------------Analyzed: Notorious / Radio Silence--------------------------------------------------------------------------------
DR Peak RMS Duration Track--------------------------------------------------------------------------------DR6 0.00 dB -6.91 dB 3:54 01-Radio SilenceDR8 0.00 dB -10.02 dB 3:51 02-The S'WalkDR7 0.00 dB -8.04 dB 3:33 03-ArianneDR8 0.00 dB -9.14 dB 3:41 04-You Need MoreDR7 0.00 dB -8.03 dB 3:50 05-Better The Devil You KnowDR7 0.00 dB -8.60 dB 4:06 06-Do Like A ManDR7 0.00 dB -9.68 dB 3:39 07-Losing YouDR7 0.00 dB -8.62 dB 3:14 08-It's EnergyDR9 0.00 dB -10.74 dB 4:13 09-The Game's UpDR7 0.00 dB -9.06 dB 3:51 10-Eyes Of The WorldDR7 0.00 dB -8.96 dB 4:37 11-I Believe In YouDR10 0.00 dB -11.20 dB 3:53 12-TouchDR7 0.00 dB -8.14 dB 3:34 13-Soul On FireDR6 0.00 dB -7.68 dB 3:39 14-Love FadesDR8 0.00 dB -10.39 dB 3:38 15-Good Times--------------------------------------------------------------------------------
Number of tracks: 15Official DR value: DR7
Samplerate: 44100 HzChannels: 2Bits per sample: 16Bitrate: 969 kbpsCodec: FLAC================================================================================

Об исполнителе (группе)

http://rutracker.org/forum/viewtopic.php?t=3282327

Об альбоме (сборнике)

Review:
by Dave Thompson
Continuing the Angel Air label's exploration of the Robin George back catalog, Radio Silence takes us back to 1985 and his continuing partnership with Sean Harris, for a project that might never have got off the ground during its own lifespan, but which certainly didn't perish due to lack of ability. This is solid '80s rock and make no mistake, a ferocious look back at the New Wave of British Heavy Metal, fed through the deliciously distorting lens of George's anthemic guitars and Harris' oh-so-distinctive voice. Fifteen songs were recorded in George's home studio, with the idea of creating an album of savage immediacy; unfortunately, neither the record industry nor George's own sense of perfection moved fast enough, and the album eventually vanished up its own over-produced and over-analyzed backside. This set returns it to its original form, rough, raw, and ready, with the single "S'Walk" still sounding superb, and the rest of the set made to match. The radio di remain silent for Notorious, but it was the broadcasters' mistake, not the band's.

Состав

Sean Harris – vocal (Diamond Head)
Robin George – guitar, bass, back vocals, keyboard (David Byron Band, Magnum, Quartz)
Jim Simpson - drums (Magnum, UFO, Budgie)
Glenn Hughes - background vocal
Peter Green - background vocal
Derek Holt - background vocal
Вы не можете начинать темы
Вы не можете отвечать на сообщения
Вы не можете редактировать свои сообщения
Вы не можете удалять свои сообщения
Вы не можете голосовать в опросах
Вы не можете прикреплять файлы к сообщениям
Вы можете скачивать файлы
!ВНИМАНИЕ!

Сайт не предоставляет электронные версии произведений, а занимается лишь коллекционированием и каталогизацией ссылок, присылаемых и публикуемых на форуме нашими читателями. Если вы являетесь правообладателем какого-либо представленного материала и не желаете, чтобы ссылка на него находилась в нашем каталоге, свяжитесь с нами, и мы незамедлительно удалим ее. Файлы для обмена на трекере предоставлены пользователями сайта, и администрация не несет ответственности за их содержание. Просьба не заливать файлы, защищенные авторскими правами, а также файлы нелегального содержания!

Искали программы, игры, дополнения, музыка mp3, аниме, аудио книги, журналы? Добро пожаловать на свободный торрент трекер Torrents, у нас можно скачать бесплатно, без смс и регистрации и прочих ограничений лучшие, отборные сборки программ, игр. Скачать торрентом не составит труда даже не опытному пользователю. Раздачи ежедневно обновляются, только лучшие и качественные раздачи, подробные описания и скриншоты. Огромная коллекция программ для работы со звуком, графикой, дизайном, а так же множество плагинов и инструментов к ним с подробной инструкцией и рекомендациями. Прошивки для навигаторов, карты. Разнообразные игры, для Windows, Linux. В коллекцие есть и старые игры любых жанров, Rpg, Action, Shooter, strategy Множество дополнений, модификаций, сценариев для популярных игр в жанре экш, рпг, гонки, стратегии, логические игры. Множество аддонов и сценариев для Microsoft Flight Simulator Большая коллекция книг, учебников. Если нет возможности купить печатное издание - смело скачивайте цифровую версию книги или, быть может, журнала. Не любите читать - можно загрузить бесплатно аудикнигу. Для веб дизайнеров и программистов так же найдется множество специализированного софта, таких как: редакторы с подсветкой, среды программирования, компоненты, системы управления базами данных, разнообразные скрипты и шаблоны. Не так давно у нас появился материал для автолюбителей и владельцев мото - оригинальные и неоригинальные каталоги запчастей, книги и журналы по ремонту и обслуживанию, видеоуроки, статьи по чип тюнингу, прошивкам. Процедура получения контента элементарная, достаточно просто скачать торрент файл и добавить его в загрузку в вашем торрент клиенте. Если у вас нет специального торрент клиента, вы можете его скачать у нас.