(Rock,Hard Rock) [CD] HungryHeart - One Ticket to Paradise - 2010, FLAC (image+.cue), lossless 

Цитировать
HungryHeart / One Ticket to Paradise
Жанр: Rock,Hard Rock
Носитель: CD
Страна-производитель диска (релиза): Russia,Unofficial release
Год издания: 2010
Издатель (лейбл): Tanzan Music
Номер по каталогу: FB10C460
Аудиокодек: FLAC (*.flac)
Тип рипа: image+.cue
Битрейт аудио: lossless
Продолжительность: 56:30
Источник (релизер): мой рип
Наличие сканов в содержимом раздачи: да
Треклист:
01.Stand Up 05:36
02.One Ticket To Paradise 05:08
03.Let Somebody Love You 05:48
04.Boulevard Of Love 04:39
05.A Million Miles Away 06:10
06.Angela 03:53
07.Love Is The Right Way 01:43
08.Lets Keep On Trying 04:37
09.Just A Little Closer 04:50
10.Get Lost 03:54
11.Man In The Mirror 04:46
12.You Wont Be Alone 05:21

Лог создания рипа

Exact Audio Copy V1.0 beta 3 from 29. August 2011
Отчёт EAC об извлечении, выполненном 8. августа 2018, 10:37
Hungryheart / The Ticket to Paradise
Дисковод: TSSTcorpCDDVDW SH-224DB Adapter: 1 ID: 0
Режим чтения : ДостоверностьИспользование точного потока : ДаОтключение кэша аудио : ДаИспользование указателей C2 : Нет
Коррекция смещения при чтении : 6Способность читать области Lead-in и Lead-out : НетЗаполнение пропущенных сэмплов тишиной : ДаУдаление блоков с тишиной в начале и конце : НетПри вычислениях CRC использовались нулевые сэмплы : ДаИнтерфейс : Встроенный Win32-интерфейс для Win NT/2000
Выходной формат : Пользовательский кодировщикВыбранный битрейт : 768 kBit/sКачество : ВысокийДобавление ID3-тега : НетУтилита сжатия : C:\Program Files\Exact Audio Copy\Flac\flac.exeДополнительные параметры : -V -8 -T "Date=%year%" -T "Genre=%genre%" %source%
TOC извлечённого CD
Трек | Старт | Длительность | Начальный сектор | Конечный сектор --------------------------------------------------------------------- 1 | 0:00.00 | 5:36.16 | 0 | 25215 2 | 5:36.16 | 5:08.13 | 25216 | 48328 3 | 10:44.29 | 5:48.37 | 48329 | 74465 4 | 16:32.66 | 4:39.01 | 74466 | 95391 5 | 21:11.67 | 6:10.40 | 95392 | 123181 6 | 27:22.32 | 3:53.74 | 123182 | 140730 7 | 31:16.31 | 1:43.67 | 140731 | 148522 8 | 33:00.23 | 4:37.18 | 148523 | 169315 9 | 37:37.41 | 4:50.33 | 169316 | 191098 10 | 42:27.74 | 3:54.25 | 191099 | 208673 11 | 46:22.24 | 4:46.61 | 208674 | 230184 12 | 51:09.10 | 5:21.37 | 230185 | 254296
Характеристики диапазона извлечения и сообщения об ошибках
Выбранный диапазон
Имя файла D:\lo$$le$$\Hungryheart'10\Hungryheart - The Ticket to Paradise.wav
Пиковый уровень 98.8 % Скорость извлечения 3.2 X Качество диапазона 100.0 % CRC теста F5B5C5C3 CRC копии F5B5C5C3 Копирование... OK
Ошибок не произошло
AccurateRip: сводка
Трек 1 : извлечено точно (доверие 2) [52CD4001] (AR v1)Трек 2 : извлечено точно (доверие 2) [F2957A93] (AR v1)Трек 3 : извлечено точно (доверие 2) [E357C56E] (AR v1)Трек 4 : извлечено точно (доверие 2) [21C359B7] (AR v1)Трек 5 : извлечено точно (доверие 2) [E4321F29] (AR v1)Трек 6 : извлечено точно (доверие 2) [49CAC9C7] (AR v1)Трек 7 : извлечено точно (доверие 2) [6E21DF11] (AR v1)Трек 8 : извлечено точно (доверие 2) [FA68CDA3] (AR v1)Трек 9 : извлечено точно (доверие 2) [404DBC75] (AR v1)Трек 10 : извлечено точно (доверие 2) [3D6E2A27] (AR v1)Трек 11 : извлечено точно (доверие 2) [6EAE3838] (AR v1)Трек 12 : извлечено точно (доверие 2) [71CDE659] (AR v1)
Все треки извлечены точно
Конец отчёта
==== Контрольная сумма отчёта 7FA5683B4F66ECBBA65FD464E8706C75E1D1E3E5991A2BB2F3D3AA8C596A46AF ====
Вы не можете начинать темы
Вы не можете отвечать на сообщения
Вы не можете редактировать свои сообщения
Вы не можете удалять свои сообщения
Вы не можете голосовать в опросах
Вы не можете прикреплять файлы к сообщениям
Вы можете скачивать файлы
!ВНИМАНИЕ!

Сайт не предоставляет электронные версии произведений, а занимается лишь коллекционированием и каталогизацией ссылок, присылаемых и публикуемых на форуме нашими читателями. Если вы являетесь правообладателем какого-либо представленного материала и не желаете, чтобы ссылка на него находилась в нашем каталоге, свяжитесь с нами, и мы незамедлительно удалим ее. Файлы для обмена на трекере предоставлены пользователями сайта, и администрация не несет ответственности за их содержание. Просьба не заливать файлы, защищенные авторскими правами, а также файлы нелегального содержания!

Искали программы, игры, дополнения, музыка mp3, аниме, аудио книги, журналы? Добро пожаловать на свободный торрент трекер Torrents, у нас можно скачать бесплатно, без смс и регистрации и прочих ограничений лучшие, отборные сборки программ, игр. Скачать торрентом не составит труда даже не опытному пользователю. Раздачи ежедневно обновляются, только лучшие и качественные раздачи, подробные описания и скриншоты. Огромная коллекция программ для работы со звуком, графикой, дизайном, а так же множество плагинов и инструментов к ним с подробной инструкцией и рекомендациями. Прошивки для навигаторов, карты. Разнообразные игры, для Windows, Linux. В коллекцие есть и старые игры любых жанров, Rpg, Action, Shooter, strategy Множество дополнений, модификаций, сценариев для популярных игр в жанре экш, рпг, гонки, стратегии, логические игры. Множество аддонов и сценариев для Microsoft Flight Simulator Большая коллекция книг, учебников. Если нет возможности купить печатное издание - смело скачивайте цифровую версию книги или, быть может, журнала. Не любите читать - можно загрузить бесплатно аудикнигу. Для веб дизайнеров и программистов так же найдется множество специализированного софта, таких как: редакторы с подсветкой, среды программирования, компоненты, системы управления базами данных, разнообразные скрипты и шаблоны. Не так давно у нас появился материал для автолюбителей и владельцев мото - оригинальные и неоригинальные каталоги запчастей, книги и журналы по ремонту и обслуживанию, видеоуроки, статьи по чип тюнингу, прошивкам. Процедура получения контента элементарная, достаточно просто скачать торрент файл и добавить его в загрузку в вашем торрент клиенте. Если у вас нет специального торрент клиента, вы можете его скачать у нас.