(Melodic Hard Rock) Two Fires - Two Fires (Japanese Edition) - 2000, APE (image+.cue), lossless 

Цитировать
Two Fires - Two Fires (Japanese Edition)
Жанр: Melodic Hard Rock
Год выпуска диска: 2000
Производитель диска: Japan
Catalog Number: MICP 10187
Label: Avalon

Аудио кодек: APE
Тип рипа: image+.cue
Битрейт аудио: lossless
Продолжительность: 68:25
Собственный релиз с оригинального диска
Трэклист:
1. My Love Will Be There
2. I Won't Give Up on Us
3. Piece of My Heart
4. When Love Is Gone
5. Summer of Love
6. Surrender
7. A Man's Gotta Do (What a Man's Gotta Do)
8. Remember
9. Never Stop Loving You
10. Alicia
11. I Believe in You
12. I Can See You
13. River of Destiny

14. Teasin' You, Pleasin' You (Japanese Bonus Track)
Kevin Chalfant (Vocals)
Josh Ramos (Guitars)
Willie Weeks (Bass)
Jim Peterik (Guitars, Keyboards)
Kenny Aronoff (Drums)

Лог ЕАС

Exact Audio Copy V0.99 prebeta 5 from 4. May 2009
EAC extraction logfile from 24. May 2010, 9:11
Two Fires / Two Fires
Used drive : LITE-ON DVDRW SHM-165H6S Adapter: 1 ID: 0
Read mode : Secure
Utilize accurate stream : Yes
Defeat audio cache : Yes
Make use of C2 pointers : No
Read offset correction : 6
Overread into Lead-In and Lead-Out : No
Fill up missing offset samples with silence : Yes
Delete leading and trailing silent blocks : No
Null samples used in CRC calculations : Yes
Used interface : Native Win32 interface for Win NT & 2000
Used output format : Internal WAV Routines
Sample format : 44.100 Hz; 16 Bit; Stereo
TOC of the extracted CD
Track | Start | Length | Start sector | End sector
---------------------------------------------------------
1 | 0:00.00 | 4:53.23 | 0 | 21997
2 | 4:53.23 | 4:47.21 | 21998 | 43543
3 | 9:40.44 | 4:00.18 | 43544 | 61561
4 | 13:40.62 | 4:59.72 | 61562 | 84058
5 | 18:40.59 | 4:33.56 | 84059 | 104589
6 | 23:14.40 | 3:41.46 | 104590 | 121210
7 | 26:56.11 | 3:41.37 | 121211 | 137822
8 | 30:37.48 | 5:21.67 | 137823 | 161964
9 | 35:59.40 | 4:52.39 | 161965 | 183903
10 | 40:52.04 | 4:57.31 | 183904 | 206209
11 | 45:49.35 | 6:54.45 | 206210 | 237304
12 | 52:44.05 | 5:12.31 | 237305 | 260735
13 | 57:56.36 | 5:32.09 | 260736 | 285644
14 | 63:28.45 | 4:56.59 | 285645 | 307903
Range status and errors
Selected range
Filename C:\D\Two Fires\Two Fires.wav
Peak level 100.0 %
Range quality 100.0 %
Copy CRC 324A8AC6
Copy OK
No errors occurred
End of status report
И снова Kevin Chalfant со своим великолепным вокалом и неменее великолепным альбомом и иже с ним мощная команда с мастерами своего дела!!! И, как всегда, рекомендую!!!
Вы не можете начинать темы
Вы не можете отвечать на сообщения
Вы не можете редактировать свои сообщения
Вы не можете удалять свои сообщения
Вы не можете голосовать в опросах
Вы не можете прикреплять файлы к сообщениям
Вы можете скачивать файлы
!ВНИМАНИЕ!

Сайт не предоставляет электронные версии произведений, а занимается лишь коллекционированием и каталогизацией ссылок, присылаемых и публикуемых на форуме нашими читателями. Если вы являетесь правообладателем какого-либо представленного материала и не желаете, чтобы ссылка на него находилась в нашем каталоге, свяжитесь с нами, и мы незамедлительно удалим ее. Файлы для обмена на трекере предоставлены пользователями сайта, и администрация не несет ответственности за их содержание. Просьба не заливать файлы, защищенные авторскими правами, а также файлы нелегального содержания!

Искали программы, игры, дополнения, музыка mp3, аниме, аудио книги, журналы? Добро пожаловать на свободный торрент трекер Torrents, у нас можно скачать бесплатно, без смс и регистрации и прочих ограничений лучшие, отборные сборки программ, игр. Скачать торрентом не составит труда даже не опытному пользователю. Раздачи ежедневно обновляются, только лучшие и качественные раздачи, подробные описания и скриншоты. Огромная коллекция программ для работы со звуком, графикой, дизайном, а так же множество плагинов и инструментов к ним с подробной инструкцией и рекомендациями. Прошивки для навигаторов, карты. Разнообразные игры, для Windows, Linux. В коллекцие есть и старые игры любых жанров, Rpg, Action, Shooter, strategy Множество дополнений, модификаций, сценариев для популярных игр в жанре экш, рпг, гонки, стратегии, логические игры. Множество аддонов и сценариев для Microsoft Flight Simulator Большая коллекция книг, учебников. Если нет возможности купить печатное издание - смело скачивайте цифровую версию книги или, быть может, журнала. Не любите читать - можно загрузить бесплатно аудикнигу. Для веб дизайнеров и программистов так же найдется множество специализированного софта, таких как: редакторы с подсветкой, среды программирования, компоненты, системы управления базами данных, разнообразные скрипты и шаблоны. Не так давно у нас появился материал для автолюбителей и владельцев мото - оригинальные и неоригинальные каталоги запчастей, книги и журналы по ремонту и обслуживанию, видеоуроки, статьи по чип тюнингу, прошивкам. Процедура получения контента элементарная, достаточно просто скачать торрент файл и добавить его в загрузку в вашем торрент клиенте. Если у вас нет специального торрент клиента, вы можете его скачать у нас.