(Melodic Hard Rock) [CD] Treat - Tunguska - 2018, FLAC (tracks+.cue), lossless 

Цитировать
Treat / Tunguska
Жанр: Melodic Hard Rock
Носитель: CD
Страна-производитель диска (релиза): RU
Год издания: 2018
Издатель (лейбл): Frontiers
Номер по каталогу: KICP 1934
Страна исполнителя (группы): Sweden
Аудиокодек: FLAC (*.flac)
Тип рипа: tracks+.cue
Битрейт аудио: lossless
Продолжительность: 00:56:41
Источник (релизер): Свой рип
Наличие сканов в содержимом раздачи: да
Треклист:
01. Progenitors 5:38
02. Always Have, Always Will 4:01
03. Best Of Enemies 3:48
04. Rose Of Jericho 3:36
05. Hearthmath City 4:28
06. Creeps 4:33
07. Build The Love 4:25
08. Man Overboard 4:36
09. Riptide 4:47
10. Tomorrow Never Comes 4:22
11. All Bets Are Off 3:39
12. Undefeated 4:22
13. Tomorrow Never Comes (Acoustic Version) (Japan Bonus Track) 4:17

Лог создания рипа

Exact Audio Copy V1.0 beta 3 from 29. August 2011
EAC extraction logfile from 20. September 2018, 22:56
Treat / Tunguska
Used drive : HL-DT-STDVDRAM GH24NSB0 Adapter: 0 ID: 0
Read mode : SecureUtilize accurate stream : YesDefeat audio cache : YesMake use of C2 pointers : No
Read offset correction : 6Overread into Lead-In and Lead-Out : NoFill up missing offset samples with silence : YesDelete leading and trailing silent blocks : NoNull samples used in CRC calculations : YesUsed interface : Native Win32 interface for Win NT & 2000Gap handling : Appended to previous track
Used output format : User Defined EncoderSelected bitrate : 896 kBit/sQuality : HighAdd ID3 tag : NoCommand line compressor : C:\Users\Alex\Desktop\EAC_1.0_beta_3_Portable_Multilingual\App\EAC\FLAC\flac.exeAdditional command line options : -6 -V -T "ARTIST=%artist%" -T "TITLE=%title%" -T "ALBUM=%albumtitle%" -T "DATE=%year%" -T "TRACKNUMBER=%tracknr%" -T "GENRE=%genre%" -T "COMMENT=%comment%" %hascover%--picture="%coverfile%"%hascover% %source% -o %dest%
TOC of the extracted CD
Track | Start | Length | Start sector | End sector --------------------------------------------------------- 1 | 0:00.00 | 5:37.56 | 0 | 25330 2 | 5:37.56 | 4:00.47 | 25331 | 43377 3 | 9:38.28 | 3:48.13 | 43378 | 60490 4 | 13:26.41 | 3:45.58 | 60491 | 77423 5 | 17:12.24 | 4:27.41 | 77424 | 97489 6 | 21:39.65 | 4:32.39 | 97490 | 117928 7 | 26:12.29 | 4:25.12 | 117929 | 137815 8 | 30:37.41 | 4:36.03 | 137816 | 158518 9 | 35:13.44 | 4:47.14 | 158519 | 180057 10 | 40:00.58 | 4:22.16 | 180058 | 199723 11 | 44:22.74 | 3:38.39 | 199724 | 216112 12 | 48:01.38 | 4:21.73 | 216113 | 235760 13 | 52:23.36 | 4:17.13 | 235761 | 255048
Track 1
Filename C:\Users\Alex\Desktop\Рипы\Новая папка (2)\01. Progenitors.wav
Pre-gap length 0:00:02.00
Peak level 99.9 % Extraction speed 1.2 X Track quality 100.0 % Test CRC 6ED1F608 Copy CRC 6ED1F608 Track not present in AccurateRip database Copy OK
Track 2
Filename C:\Users\Alex\Desktop\Рипы\Новая папка (2)\02. Always Have, Always Will.wav
Peak level 99.9 % Extraction speed 1.3 X Track quality 100.0 % Test CRC B54F30EB Copy CRC B54F30EB Track not present in AccurateRip database Copy OK
Track 3
Filename C:\Users\Alex\Desktop\Рипы\Новая папка (2)\03. Best Of Enemies.wav
Peak level 99.9 % Extraction speed 1.4 X Track quality 100.0 % Test CRC 7E692120 Copy CRC 7E692120 Track not present in AccurateRip database Copy OK
Track 4
Filename C:\Users\Alex\Desktop\Рипы\Новая папка (2)\04. Rose Of Jericho.wav
Peak level 99.9 % Extraction speed 1.3 X Track quality 99.9 % Test CRC C047EFD6 Copy CRC C047EFD6 Track not present in AccurateRip database Copy OK
Track 5
Filename C:\Users\Alex\Desktop\Рипы\Новая папка (2)\05. Heartmath City.wav
Peak level 99.9 % Extraction speed 1.4 X Track quality 99.9 % Test CRC A2B7C5C9 Copy CRC A2B7C5C9 Track not present in AccurateRip database Copy OK
Track 6
Filename C:\Users\Alex\Desktop\Рипы\Новая папка (2)\06. Creeps.wav
Peak level 99.9 % Extraction speed 1.7 X Track quality 100.0 % Test CRC 939A3FB5 Copy CRC 939A3FB5 Track not present in AccurateRip database Copy OK
Track 7
Filename C:\Users\Alex\Desktop\Рипы\Новая папка (2)\07. Build The Love.wav
Peak level 99.9 % Extraction speed 1.8 X Track quality 100.0 % Test CRC 0CA1A63D Copy CRC 0CA1A63D Track not present in AccurateRip database Copy OK
Track 8
Filename C:\Users\Alex\Desktop\Рипы\Новая папка (2)\08. Man Overboard.wav
Peak level 99.9 % Extraction speed 1.9 X Track quality 100.0 % Test CRC 46F34E06 Copy CRC 46F34E06 Track not present in AccurateRip database Copy OK
Track 9
Filename C:\Users\Alex\Desktop\Рипы\Новая папка (2)\09. Riptide.wav
Peak level 99.9 % Extraction speed 1.8 X Track quality 99.9 % Test CRC 97469706 Copy CRC 97469706 Track not present in AccurateRip database Copy OK
Track 10
Filename C:\Users\Alex\Desktop\Рипы\Новая папка (2)\10. Tomorrow Never Comes.wav
Peak level 99.9 % Extraction speed 2.0 X Track quality 100.0 % Test CRC FBBAF83B Copy CRC FBBAF83B Track not present in AccurateRip database Copy OK
Track 11
Filename C:\Users\Alex\Desktop\Рипы\Новая папка (2)\11. All Bets Are Off.wav
Peak level 99.9 % Extraction speed 2.1 X Track quality 100.0 % Test CRC 9E1E2E0A Copy CRC 9E1E2E0A Track not present in AccurateRip database Copy OK
Track 12
Filename C:\Users\Alex\Desktop\Рипы\Новая папка (2)\12. Undefeated.wav
Peak level 99.9 % Extraction speed 2.2 X Track quality 100.0 % Test CRC ADF9776A Copy CRC ADF9776A Track not present in AccurateRip database Copy OK
Track 13
Filename C:\Users\Alex\Desktop\Рипы\Новая папка (2)\13. Tomorrow Never Comes (Acoustic Version).wav
Peak level 99.8 % Extraction speed 2.2 X Track quality 100.0 % Test CRC 193B9DBA Copy CRC 193B9DBA Track not present in AccurateRip database Copy OK
None of the tracks are present in the AccurateRip database
No errors occurred
End of status report
==== Log checksum 5852BC1558AC7CFBE8A25DF6464B5F84EA0C7ACCEE202E9423AE913431BD6241 ====

Содержание индексной карты (.CUE)

REM GENRE "Hard Rock"REM DATE 2018REM DISCID A60D480DREM COMMENT "ExactAudioCopy v1.0b3"PERFORMER "Treat"TITLE "Tunguska"FILE "01. Progenitors.wav" WAVE  TRACK 01 AUDIO    TITLE "Progenitors"    PERFORMER "Treat"    INDEX 01 00:00:00FILE "02. Always Have, Always Will.wav" WAVE  TRACK 02 AUDIO    TITLE "Always Have, Always Will"    PERFORMER "Treat"    INDEX 01 00:00:00FILE "03. Best Of Enemies.wav" WAVE  TRACK 03 AUDIO    TITLE "Best Of Enemies"    PERFORMER "Treat"    INDEX 01 00:00:00FILE "04. Rose Of Jericho.wav" WAVE  TRACK 04 AUDIO    TITLE "Rose Of Jericho"    PERFORMER "Treat"    INDEX 01 00:00:00FILE "05. Heartmath City.wav" WAVE  TRACK 05 AUDIO    TITLE "Heartmath City"    PERFORMER "Treat"    INDEX 01 00:00:00FILE "06. Creeps.wav" WAVE  TRACK 06 AUDIO    TITLE "Creeps"    PERFORMER "Treat"    INDEX 01 00:00:00FILE "07. Build The Love.wav" WAVE  TRACK 07 AUDIO    TITLE "Build The Love"    PERFORMER "Treat"    INDEX 01 00:00:00FILE "08. Man Overboard.wav" WAVE  TRACK 08 AUDIO    TITLE "Man Overboard"    PERFORMER "Treat"    INDEX 01 00:00:00FILE "09. Riptide.wav" WAVE  TRACK 09 AUDIO    TITLE "Riptide"    PERFORMER "Treat"    INDEX 01 00:00:00FILE "10. Tomorrow Never Comes.wav" WAVE  TRACK 10 AUDIO    TITLE "Tomorrow Never Comes"    PERFORMER "Treat"    INDEX 01 00:00:00FILE "11. All Bets Are Off.wav" WAVE  TRACK 11 AUDIO    TITLE "All Bets Are Off"    PERFORMER "Treat"    INDEX 01 00:00:00FILE "12. Undefeated.wav" WAVE  TRACK 12 AUDIO    TITLE "Undefeated"    PERFORMER "Treat"    INDEX 01 00:00:00FILE "13. Tomorrow Never Comes (Acoustic Version).wav" WAVE  TRACK 13 AUDIO    TITLE "Tomorrow Never Comes (Acoustic Version)"    PERFORMER "Treat"    INDEX 01 00:00:00

Состав

Robert Ernlund – lead vocals
Anders Wikström – lead guitars and background vocals
Patrick Appelgren – keyboards, guitars and background vocals
Pontus Egberg – bass guitar
Jamie Borger – drums
Вы не можете начинать темы
Вы не можете отвечать на сообщения
Вы не можете редактировать свои сообщения
Вы не можете удалять свои сообщения
Вы не можете голосовать в опросах
Вы не можете прикреплять файлы к сообщениям
Вы можете скачивать файлы
!ВНИМАНИЕ!

Сайт не предоставляет электронные версии произведений, а занимается лишь коллекционированием и каталогизацией ссылок, присылаемых и публикуемых на форуме нашими читателями. Если вы являетесь правообладателем какого-либо представленного материала и не желаете, чтобы ссылка на него находилась в нашем каталоге, свяжитесь с нами, и мы незамедлительно удалим ее. Файлы для обмена на трекере предоставлены пользователями сайта, и администрация не несет ответственности за их содержание. Просьба не заливать файлы, защищенные авторскими правами, а также файлы нелегального содержания!

Искали программы, игры, дополнения, музыка mp3, аниме, аудио книги, журналы? Добро пожаловать на свободный торрент трекер Torrents, у нас можно скачать бесплатно, без смс и регистрации и прочих ограничений лучшие, отборные сборки программ, игр. Скачать торрентом не составит труда даже не опытному пользователю. Раздачи ежедневно обновляются, только лучшие и качественные раздачи, подробные описания и скриншоты. Огромная коллекция программ для работы со звуком, графикой, дизайном, а так же множество плагинов и инструментов к ним с подробной инструкцией и рекомендациями. Прошивки для навигаторов, карты. Разнообразные игры, для Windows, Linux. В коллекцие есть и старые игры любых жанров, Rpg, Action, Shooter, strategy Множество дополнений, модификаций, сценариев для популярных игр в жанре экш, рпг, гонки, стратегии, логические игры. Множество аддонов и сценариев для Microsoft Flight Simulator Большая коллекция книг, учебников. Если нет возможности купить печатное издание - смело скачивайте цифровую версию книги или, быть может, журнала. Не любите читать - можно загрузить бесплатно аудикнигу. Для веб дизайнеров и программистов так же найдется множество специализированного софта, таких как: редакторы с подсветкой, среды программирования, компоненты, системы управления базами данных, разнообразные скрипты и шаблоны. Не так давно у нас появился материал для автолюбителей и владельцев мото - оригинальные и неоригинальные каталоги запчастей, книги и журналы по ремонту и обслуживанию, видеоуроки, статьи по чип тюнингу, прошивкам. Процедура получения контента элементарная, достаточно просто скачать торрент файл и добавить его в загрузку в вашем торрент клиенте. Если у вас нет специального торрент клиента, вы можете его скачать у нас.