(Melodic Rock | Pomp AOR) [CD] Artica - As It Should Be (Japan Press) - 1995, FLAC (image+.cue), lossless 

Цитировать
Artica / As It Should Be (Japan Press)
Жанр: Melodic Rock | Pomp AOR
Носитель: CD
Страна-производитель диска (релиза): Japan
Год издания: 1995
Издатель (лейбл): Zero Corporation
Номер по каталогу: XRCN-1230
Страна исполнителя (группы): USA
Аудиокодек: FLAC (*.flac)
Тип рипа: image+.cue
Битрейт аудио: lossless
Продолжительность: 43:26
Источник (релизер): alzal (спасибо !)
Наличие сканов в содержимом раздачи: да
Треклист:
01. Fantasy (4:07)
02. It's Over (4:20)
03. _You're Still On Your Own (4:33)
04. One Night (4:40)
05. Hold On (5:30)
06. Since Loving You (3:58)
07. Take Me All The Way (3:36)
08. Girl Of My Dreams (4:48)
09. _(Your Love Will) Carry Me Home (3:56)
10. Let It Show (3:58)

Лог создания рипа

Exact Audio Copy V1.3 from 2. September 2016
Отчёт EAC об извлечении, выполненном 12. сентября 2018, 20:28
Artica / As It Should Be (XRCN-1230)
Дисковод: PLEXTOR BD-R PX-B950SA Adapter: 1 ID: 0
Режим чтения : ДостоверностьИспользование точного потока : ДаОтключение кэша аудио : ДаИспользование указателей C2 : Нет
Коррекция смещения при чтении : 6Способность читать области Lead-in и Lead-out : НетЗаполнение пропущенных сэмплов тишиной : ДаУдаление блоков с тишиной в начале и конце : НетПри вычислениях CRC использовались нулевые сэмплы : ДаИнтерфейс : Встроенный Win32-интерфейс для Win NT/2000
Выходной формат : Пользовательский кодировщикВыбранный битрейт : 1024 kBit/sКачество : ВысокийДобавление ID3-тега : НетУтилита сжатия : C:\Program Files (x86)\Exact Audio Copy\FLAC\FLAC.EXEДополнительные параметры : -6 -V -T "ARTIST=%artist%" -T "TITLE=%title%" -T "ALBUM=%albumtitle%" -T "DATE=%year%" -T "TRACKNUMBER=%tracknr%" -T "GENRE=%genre%" -T "COMMENT=%comment%" -T "BAND=%albuminterpret%" -T "ALBUMARTIST=%albuminterpret%" -T "COMPOSER=%composer%" %haslyrics%--tag-from-file=LYRICS="%lyricsfile%"%haslyrics% -T "DISCNUMBER=%cdnumber%" -T "TOTALDISCS=%totalcds%" -T "TOTALTRACKS=%numtracks%" %hascover%--picture="%coverfile%"%hascover% %source% -o %dest%
TOC извлечённого CD
Трек | Старт | Длительность | Начальный сектор | Конечный сектор --------------------------------------------------------------------- 1 | 0:00.00 | 4:07.02 | 0 | 18526 2 | 4:07.02 | 4:19.60 | 18527 | 38011 3 | 8:26.62 | 4:33.20 | 38012 | 58506 4 | 13:00.07 | 4:40.23 | 58507 | 79529 5 | 17:40.30 | 5:30.27 | 79530 | 104306 6 | 23:10.57 | 3:57.65 | 104307 | 122146 7 | 27:08.47 | 3:35.40 | 122147 | 138311 8 | 30:44.12 | 4:47.68 | 138312 | 159904 9 | 35:32.05 | 3:55.65 | 159905 | 177594 10 | 39:27.70 | 3:57.62 | 177595 | 195431
Характеристики диапазона извлечения и сообщения об ошибках
Выбранный диапазон
Имя файла G:\RIP\Artica 1995 Japanese Pressing FLAC by alzal\Artica - As It Should Be (XRCN-1230).wav
Пиковый уровень 100.0 % Скорость извлечения 8.1 X Качество диапазона 100.0 % CRC теста C5130915 CRC копии C5130915 Копирование... OK
Ошибок не произошло
AccurateRip: сводка
Трек 1 : извлечено точно (доверие 1) [580DAA11] (AR v2)Трек 2 : извлечено точно (доверие 1) [E5FA8BC8] (AR v2)Трек 3 : извлечено точно (доверие 1) [10598EDB] (AR v2)Трек 4 : извлечено точно (доверие 1) [852A5ACE] (AR v2)Трек 5 : извлечено точно (доверие 1) [9D4A2586] (AR v2)Трек 6 : извлечено точно (доверие 1) [1E0D38FF] (AR v2)Трек 7 : извлечено точно (доверие 1) [44582C30] (AR v2)Трек 8 : извлечено точно (доверие 1) [23BBA06E] (AR v2)Трек 9 : извлечено точно (доверие 1) [929AD363] (AR v2)Трек 10 : извлечено точно (доверие 1) [E47B3E0B] (AR v2)
Все треки извлечены точно
Конец отчёта
---- CUETools DB Plugin V2.1.6
[CTDB TOCID: vUJKmeDpWa9mI72e06iooPdP9_I-] foundSubmit result: vUJKmeDpWa9mI72e06iooPdP9_I- has been confirmedTrack | CTDB Status 1 | (1/1) Accurately ripped 2 | (1/1) Accurately ripped 3 | (1/1) Accurately ripped 4 | (1/1) Accurately ripped 5 | (1/1) Accurately ripped 6 | (1/1) Accurately ripped 7 | (1/1) Accurately ripped 8 | (1/1) Accurately ripped 9 | (1/1) Accurately ripped 10 | (1/1) Accurately ripped
==== Контрольная сумма отчёта 9F8B82C72392E7F42CF9596FBE59467359E888816AB4F694823820B6490C3E79 ====

Лог проверки качества

-----------------------
DON'T MODIFY THIS FILE
-----------------------
PERFORMER: auCDtect Task Manager, ver. 1.6.0 RC1 build 1.6.0.1Copyright (c) 2008-2010 y-soft. All rights reservedhttp://y-soft.org
ANALYZER: auCDtect: CD records authenticity detector, version 0.8.2Copyright (c) 2004 Oleg Berngardt. All rights reserved.Copyright (c) 2004 Alexander Djourik. All rights reserved.
FILE: Artica - As It Should Be (XRCN-1230).flac Size: 339039087 Hash: 17F70904AB875586ABB92A54E92051A2 Accuracy: -m0 Conclusion: CDDA 100% Signature: D7179DBCA563CEA36354A7943960A9D4403436FB

Лог DRM

foobar2000 1.2.9 / Dynamic Range Meter 1.1.1log date: 2018-09-15 21:43:15
--------------------------------------------------------------------------------Analyzed: Artica / As It Should Be (XRCN-1230)--------------------------------------------------------------------------------
DR Peak RMS Duration Track--------------------------------------------------------------------------------DR8 0.00 dB -8.61 dB 4:07 01-FantasyDR8 0.00 dB -10.11 dB 4:20 02-It's OverDR8 0.00 dB -9.35 dB 4:33 03- You're Still On Your OwnDR8 0.00 dB -9.88 dB 4:40 04-One NightDR7 0.00 dB -8.40 dB 5:30 05-Hold OnDR8 0.00 dB -8.84 dB 3:58 06-Since Loving YouDR8 0.00 dB -8.98 dB 3:36 07-Take Me All The WayDR8 0.00 dB -9.36 dB 4:48 08-Girl Of My DreamsDR8 0.00 dB -11.00 dB 3:56 09- (Your Love Will) Carry Me HomeDR8 0.00 dB -8.79 dB 3:58 10-Let It Show--------------------------------------------------------------------------------
Number of tracks: 10Official DR value: DR8
Samplerate: 44100 HzChannels: 2Bits per sample: 16Bitrate: 1041 kbpsCodec: FLAC================================================================================

Состав

ϟ Artica ϟ
John David Martin - Lead Vocals, Background Vocals
Robby Moore - Keyboards
Mark Adrian - Guitars, Background Vocals
Roger Fiest - Bass Guitars, Background Vocals
Chuck Baker - Drums, Percussion, Background Vocals
Produced by Artica
Recorded at:
Studio Sound Recorders, North Hollywood, CA
Studio 55, Hollywood, CA
Lovell-Brooke Recorders, Hollywood, CA
AMS Studios, Tujunga, CA
Вы не можете начинать темы
Вы не можете отвечать на сообщения
Вы не можете редактировать свои сообщения
Вы не можете удалять свои сообщения
Вы не можете голосовать в опросах
Вы не можете прикреплять файлы к сообщениям
Вы можете скачивать файлы
!ВНИМАНИЕ!

Сайт не предоставляет электронные версии произведений, а занимается лишь коллекционированием и каталогизацией ссылок, присылаемых и публикуемых на форуме нашими читателями. Если вы являетесь правообладателем какого-либо представленного материала и не желаете, чтобы ссылка на него находилась в нашем каталоге, свяжитесь с нами, и мы незамедлительно удалим ее. Файлы для обмена на трекере предоставлены пользователями сайта, и администрация не несет ответственности за их содержание. Просьба не заливать файлы, защищенные авторскими правами, а также файлы нелегального содержания!

Искали программы, игры, дополнения, музыка mp3, аниме, аудио книги, журналы? Добро пожаловать на свободный торрент трекер Torrents, у нас можно скачать бесплатно, без смс и регистрации и прочих ограничений лучшие, отборные сборки программ, игр. Скачать торрентом не составит труда даже не опытному пользователю. Раздачи ежедневно обновляются, только лучшие и качественные раздачи, подробные описания и скриншоты. Огромная коллекция программ для работы со звуком, графикой, дизайном, а так же множество плагинов и инструментов к ним с подробной инструкцией и рекомендациями. Прошивки для навигаторов, карты. Разнообразные игры, для Windows, Linux. В коллекцие есть и старые игры любых жанров, Rpg, Action, Shooter, strategy Множество дополнений, модификаций, сценариев для популярных игр в жанре экш, рпг, гонки, стратегии, логические игры. Множество аддонов и сценариев для Microsoft Flight Simulator Большая коллекция книг, учебников. Если нет возможности купить печатное издание - смело скачивайте цифровую версию книги или, быть может, журнала. Не любите читать - можно загрузить бесплатно аудикнигу. Для веб дизайнеров и программистов так же найдется множество специализированного софта, таких как: редакторы с подсветкой, среды программирования, компоненты, системы управления базами данных, разнообразные скрипты и шаблоны. Не так давно у нас появился материал для автолюбителей и владельцев мото - оригинальные и неоригинальные каталоги запчастей, книги и журналы по ремонту и обслуживанию, видеоуроки, статьи по чип тюнингу, прошивкам. Процедура получения контента элементарная, достаточно просто скачать торрент файл и добавить его в загрузку в вашем торрент клиенте. Если у вас нет специального торрент клиента, вы можете его скачать у нас.