(Melodic Rock | AOR) [CD] Norway - Rising Up From The Ashes - 2006, FLAC (image+.cue), lossless 

Цитировать

Norway

Rising Up From The Ashes




• Жанр: Melodic Rock | AOR
• Носитель: CD
• Год издания: 2006
• Издатель (лейбл) MTM Music
• Номер по каталогу: 0681-181
• Страна исполнителя (группы): USA
• Аудиокодек: FLAC (*.flac)
• Тип рипа: image+.cue
• Продолжительность: 00:49:52
• Источник (релизер): alzal ®
• Наличие сканов: да

01. Save Me (00:05:53)
02. Anything At All (00:05:02)
03. Only One I Need (00:05:58)
04. American Girl (00:04:31)
05. The Power Of Gold (00:05:58)
06. Since You've Been Gone (00:04:36)
07. Tell Me (00:04:53)
08. Won't Let You Down (00:05:08)
09. Haunted (00:07:49)
--

• Лог создания рипа

Exact Audio Copy V1.1 from 23. June 2015
Отчёт EAC об извлечении, выполненном 24. февраля 2017, 19:00
Norway / Rising Up From The Ashes (0681-181)
Дисковод: PLEXTOR BD-R PX-B950SA Adapter: 1 ID: 0
Режим чтения : ДостоверностьИспользование точного потока : ДаОтключение кэша аудио : ДаИспользование указателей C2 : Нет
Коррекция смещения при чтении : 6Способность читать области Lead-in и Lead-out : НетЗаполнение пропущенных сэмплов тишиной : ДаУдаление блоков с тишиной в начале и конце : НетПри вычислениях CRC использовались нулевые сэмплы : ДаИнтерфейс : Встроенный Win32-интерфейс для Win NT/2000
Выходной формат : Пользовательский кодировщикВыбранный битрейт : 1024 kBit/sКачество : ВысокийДобавление ID3-тега : НетУтилита сжатия : C:\Program Files (x86)\Exact Audio Copy\FLAC\FLAC.EXEДополнительные параметры : -6 -V -T "ARTIST=%artist%" -T "TITLE=%title%" -T "ALBUM=%albumtitle%" -T "DATE=%year%" -T "TRACKNUMBER=%tracknr%" -T "GENRE=%genre%" -T "COMMENT=%comment%" -T "BAND=%albuminterpret%" -T "ALBUMARTIST=%albuminterpret%" -T "COMPOSER=%composer%" %haslyrics%--tag-from-file=LYRICS="%lyricsfile%"%haslyrics% -T "DISCNUMBER=%cdnumber%" -T "TOTALDISCS=%totalcds%" -T "TOTALTRACKS=%numtracks%" %hascover%--picture="%coverfile%"%hascover% %source% -o %dest%
TOC извлечённого CD
Трек | Старт | Длительность | Начальный сектор | Конечный сектор --------------------------------------------------------------------- 1 | 0:00.01 | 5:53.39 | 1 | 26514 2 | 5:53.40 | 5:02.58 | 26515 | 49222 3 | 10:56.23 | 5:58.23 | 49223 | 76095 4 | 16:54.46 | 4:31.00 | 76096 | 96420 5 | 21:25.46 | 5:58.57 | 96421 | 123327 6 | 27:24.28 | 4:36.46 | 123328 | 144073 7 | 32:00.74 | 4:53.18 | 144074 | 166066 8 | 36:54.17 | 5:08.23 | 166067 | 189189 9 | 42:02.40 | 7:49.50 | 189190 | 224414
Характеристики диапазона извлечения и сообщения об ошибках
Выбранный диапазон
Имя файла G:\RIP\Norway 2006 FLAC by alzal\Norway - Rising Up From The Ashes (0681-181).wav
Пиковый уровень 100.0 % Скорость извлечения 3.5 X Качество диапазона 100.0 % CRC теста 179C1F38 CRC копии 179C1F38 Копирование... OK
Ошибок не произошло
AccurateRip: сводка
Трек 1 : извлечено точно (доверие 5) [8AC8ED01] (AR v2)Трек 2 : извлечено точно (доверие 5) [7ED3DD1E] (AR v2)Трек 3 : извлечено точно (доверие 5) [C0B49DD1] (AR v2)Трек 4 : извлечено точно (доверие 5) [C07DEF65] (AR v2)Трек 5 : извлечено точно (доверие 5) [BD27510A] (AR v2)Трек 6 : извлечено точно (доверие 5) [FF6C7D1F] (AR v2)Трек 7 : извлечено точно (доверие 5) [DFA10687] (AR v2)Трек 8 : извлечено точно (доверие 5) [74E4D3CD] (AR v2)Трек 9 : извлечено точно (доверие 4) [0BE72015] (AR v2)
Все треки извлечены точно
Конец отчёта
---- CUETools DB Plugin V2.1.6
[CTDB TOCID: en5LmKc8el1uZaXTV05CPAX7c90-] foundSubmit result: en5LmKc8el1uZaXTV05CPAX7c90- has been confirmedTrack | CTDB Status 1 | (2/2) Accurately ripped 2 | (2/2) Accurately ripped 3 | (2/2) Accurately ripped 4 | (2/2) Accurately ripped 5 | (2/2) Accurately ripped 6 | (2/2) Accurately ripped 7 | (2/2) Accurately ripped 8 | (2/2) Accurately ripped 9 | (2/2) Accurately ripped
==== Контрольная сумма отчёта 29F4D629B59A6676CFC0CD4D29CE37E1BF2D05F92ABA2F4B42DFAC5DD6A0DFA3 ====
-

• Содержание индексной карты

REM GENRE "Melodic Rock | AOR"REM DATE 2006REM DISCID 730BB009REM COMMENT "ExactAudioCopy v1.1"PERFORMER "Norway"TITLE "Rising Up From The Ashes  (0681-181)"FILE "Norway - Rising Up From The Ashes  (0681-181).flac" WAVE  TRACK 01 AUDIO    TITLE "Save Me"    PERFORMER "Norway"    FLAGS DCP    INDEX 00 00:00:00    INDEX 01 00:00:01  TRACK 02 AUDIO    TITLE "Anything At All"    PERFORMER "Norway"    FLAGS DCP    INDEX 01 05:53:40  TRACK 03 AUDIO    TITLE "Only One I Need"    PERFORMER "Norway"    FLAGS DCP    INDEX 01 10:56:23  TRACK 04 AUDIO    TITLE "American Girl"    PERFORMER "Norway"    FLAGS DCP    INDEX 01 16:54:46  TRACK 05 AUDIO    TITLE "The Power Of Gold"    PERFORMER "Norway"    FLAGS DCP    INDEX 01 21:25:46  TRACK 06 AUDIO    TITLE "Since You've Been Gone"    PERFORMER "Norway"    FLAGS DCP    INDEX 01 27:24:28  TRACK 07 AUDIO    TITLE "Tell Me"    PERFORMER "Norway"    FLAGS DCP    INDEX 01 32:00:74  TRACK 08 AUDIO    TITLE "Won't Let You Down"    PERFORMER "Norway"    FLAGS DCP    INDEX 01 36:54:17  TRACK 09 AUDIO    TITLE "Haunted"    PERFORMER "Norway"    FLAGS DCP    INDEX 01 42:02:40
Вы не можете начинать темы
Вы не можете отвечать на сообщения
Вы не можете редактировать свои сообщения
Вы не можете удалять свои сообщения
Вы не можете голосовать в опросах
Вы не можете прикреплять файлы к сообщениям
Вы можете скачивать файлы
!ВНИМАНИЕ!

Сайт не предоставляет электронные версии произведений, а занимается лишь коллекционированием и каталогизацией ссылок, присылаемых и публикуемых на форуме нашими читателями. Если вы являетесь правообладателем какого-либо представленного материала и не желаете, чтобы ссылка на него находилась в нашем каталоге, свяжитесь с нами, и мы незамедлительно удалим ее. Файлы для обмена на трекере предоставлены пользователями сайта, и администрация не несет ответственности за их содержание. Просьба не заливать файлы, защищенные авторскими правами, а также файлы нелегального содержания!

Искали программы, игры, дополнения, музыка mp3, аниме, аудио книги, журналы? Добро пожаловать на свободный торрент трекер Torrents, у нас можно скачать бесплатно, без смс и регистрации и прочих ограничений лучшие, отборные сборки программ, игр. Скачать торрентом не составит труда даже не опытному пользователю. Раздачи ежедневно обновляются, только лучшие и качественные раздачи, подробные описания и скриншоты. Огромная коллекция программ для работы со звуком, графикой, дизайном, а так же множество плагинов и инструментов к ним с подробной инструкцией и рекомендациями. Прошивки для навигаторов, карты. Разнообразные игры, для Windows, Linux. В коллекцие есть и старые игры любых жанров, Rpg, Action, Shooter, strategy Множество дополнений, модификаций, сценариев для популярных игр в жанре экш, рпг, гонки, стратегии, логические игры. Множество аддонов и сценариев для Microsoft Flight Simulator Большая коллекция книг, учебников. Если нет возможности купить печатное издание - смело скачивайте цифровую версию книги или, быть может, журнала. Не любите читать - можно загрузить бесплатно аудикнигу. Для веб дизайнеров и программистов так же найдется множество специализированного софта, таких как: редакторы с подсветкой, среды программирования, компоненты, системы управления базами данных, разнообразные скрипты и шаблоны. Не так давно у нас появился материал для автолюбителей и владельцев мото - оригинальные и неоригинальные каталоги запчастей, книги и журналы по ремонту и обслуживанию, видеоуроки, статьи по чип тюнингу, прошивкам. Процедура получения контента элементарная, достаточно просто скачать торрент файл и добавить его в загрузку в вашем торрент клиенте. Если у вас нет специального торрент клиента, вы можете его скачать у нас.