(Melodic Hard Rock) [CD] Station - More Than The Moon - 2018, FLAC (image+.cue), lossless 

Цитировать
Station - More Than The Moon
Жанр: Melodic Hard Rock
Носитель: CD
Страна-производитель диска: USA
Год издания: 2018
Издатель: Station Music LLC
Номер по каталогу: None
Страна группы: USA
Аудиокодек: FLAC (*.flac)
Тип рипа: image+.cue
Битрейт аудио: lossless
Продолжительность: 00:58:40
Релизер: alzal
Наличие сканов в содержимом раздачи: да
Треклист:
01. I Won't Break Your Heart 03:45
02. Cost Of The Sand 04:41
03. More Than The Moon 04:20
04. I Don't Mind 05:27
05. Lie To You 06:42
06. Easier Said Than Done 04:38
07. Still The One 04:29
08. Losing You 06:21
09. Always Be A Part Of Me 04:07
10. Northport Sunset 04:11
11. When I Came Undone 04:50
12. Walking Away 05:02

Лог создания рипа

Exact Audio Copy V1.3 from 2. September 2016
Отчёт EAC об извлечении, выполненном 26. сентября 2018, 20:14
Station / More Than The Moon
Дисковод: PLEXTOR BD-R PX-B950SA Adapter: 1 ID: 0
Режим чтения : ДостоверностьИспользование точного потока : ДаОтключение кэша аудио : ДаИспользование указателей C2 : Нет
Коррекция смещения при чтении : 6Способность читать области Lead-in и Lead-out : НетЗаполнение пропущенных сэмплов тишиной : ДаУдаление блоков с тишиной в начале и конце : НетПри вычислениях CRC использовались нулевые сэмплы : ДаИнтерфейс : Встроенный Win32-интерфейс для Win NT/2000
Выходной формат : Пользовательский кодировщикВыбранный битрейт : 1024 kBit/sКачество : ВысокийДобавление ID3-тега : НетУтилита сжатия : C:\Program Files (x86)\Exact Audio Copy\FLAC\FLAC.EXEДополнительные параметры : -6 -V -T "ARTIST=%artist%" -T "TITLE=%title%" -T "ALBUM=%albumtitle%" -T "DATE=%year%" -T "TRACKNUMBER=%tracknr%" -T "GENRE=%genre%" -T "COMMENT=%comment%" -T "BAND=%albuminterpret%" -T "ALBUMARTIST=%albuminterpret%" -T "COMPOSER=%composer%" %haslyrics%--tag-from-file=LYRICS="%lyricsfile%"%haslyrics% -T "DISCNUMBER=%cdnumber%" -T "TOTALDISCS=%totalcds%" -T "TOTALTRACKS=%numtracks%" %hascover%--picture="%coverfile%"%hascover% %source% -o %dest%
TOC извлечённого CD
Трек | Старт | Длительность | Начальный сектор | Конечный сектор --------------------------------------------------------------------- 1 | 0:00.00 | 3:45.18 | 0 | 16892 2 | 3:45.18 | 4:41.32 | 16893 | 37999 3 | 8:26.50 | 4:20.57 | 38000 | 57556 4 | 12:47.32 | 5:27.59 | 57557 | 82140 5 | 18:15.16 | 6:42.46 | 82141 | 112336 6 | 24:57.62 | 4:38.38 | 112337 | 133224 7 | 29:36.25 | 4:29.55 | 133225 | 153454 8 | 34:06.05 | 6:21.60 | 153455 | 182089 9 | 40:27.65 | 4:07.29 | 182090 | 200643 10 | 44:35.19 | 4:11.13 | 200644 | 219481 11 | 48:46.32 | 4:50.53 | 219482 | 241284 12 | 53:37.10 | 5:02.42 | 241285 | 263976
Характеристики диапазона извлечения и сообщения об ошибках
Выбранный диапазон
Имя файла G:\RIP\Station 2018 FLAC by alzal\Station - More Than The Moon.wav
Пиковый уровень 95.5 % Скорость извлечения 3.5 X Качество диапазона 100.0 % CRC теста 8E3B8967 CRC копии 8E3B8967 Копирование... OK
Ошибок не произошло
AccurateRip: сводка
Трек 1 отсутствует в базе данныхТрек 2 отсутствует в базе данныхТрек 3 отсутствует в базе данныхТрек 4 отсутствует в базе данныхТрек 5 отсутствует в базе данныхТрек 6 отсутствует в базе данныхТрек 7 отсутствует в базе данныхТрек 8 отсутствует в базе данныхТрек 9 отсутствует в базе данныхТрек 10 отсутствует в базе данныхТрек 11 отсутствует в базе данныхТрек 12 отсутствует в базе данных
Ни одного трека нет в базе AccurateRip
Конец отчёта
---- CUETools DB Plugin V2.1.6
[CTDB TOCID: FnPhmhWAu.zmY4GGeqaUfpzJs9E-] foundSubmit result: FnPhmhWAu.zmY4GGeqaUfpzJs9E- has been confirmedTrack | CTDB Status 1 | (4/4) Accurately ripped 2 | (4/4) Accurately ripped 3 | (4/4) Accurately ripped 4 | (4/4) Accurately ripped 5 | (4/4) Accurately ripped 6 | (4/4) Accurately ripped 7 | (4/4) Accurately ripped 8 | (4/4) Accurately ripped 9 | (4/4) Accurately ripped 10 | (4/4) Accurately ripped 11 | (4/4) Accurately ripped 12 | (4/4) Accurately ripped
==== Контрольная сумма отчёта C327D4138539DFF04649501594C5C554716A4AB0834D901B52CA781009FF2F19 ====

Лог проверки качества

AUDIOCHECKER v2.0 beta (build 457) - by Dester - opdester@freemail.hu~~~~~~~~~~~~~~~~~~~~~~~~~~~~~~~~~~-=== НЕ РЕДАКТИРУЙТЕ ЭТОТ ФАЙЛ! ===-
Путь: ...\Station - More Than The Moon - 2018 FLAC
1 -=- Station - More Than The Moon.flac -=- CDDA (100%)
89906980

Состав

Patrick Kearney - Lead Vocals
Chris Lane - Guitar, Piano, Keyboard, Backing Vocals
Emi Asta - Bass, Backing Vocals
Tony Baptist - Drums
Вы не можете начинать темы
Вы не можете отвечать на сообщения
Вы не можете редактировать свои сообщения
Вы не можете удалять свои сообщения
Вы не можете голосовать в опросах
Вы не можете прикреплять файлы к сообщениям
Вы можете скачивать файлы
!ВНИМАНИЕ!

Сайт не предоставляет электронные версии произведений, а занимается лишь коллекционированием и каталогизацией ссылок, присылаемых и публикуемых на форуме нашими читателями. Если вы являетесь правообладателем какого-либо представленного материала и не желаете, чтобы ссылка на него находилась в нашем каталоге, свяжитесь с нами, и мы незамедлительно удалим ее. Файлы для обмена на трекере предоставлены пользователями сайта, и администрация не несет ответственности за их содержание. Просьба не заливать файлы, защищенные авторскими правами, а также файлы нелегального содержания!

Искали программы, игры, дополнения, музыка mp3, аниме, аудио книги, журналы? Добро пожаловать на свободный торрент трекер Torrents, у нас можно скачать бесплатно, без смс и регистрации и прочих ограничений лучшие, отборные сборки программ, игр. Скачать торрентом не составит труда даже не опытному пользователю. Раздачи ежедневно обновляются, только лучшие и качественные раздачи, подробные описания и скриншоты. Огромная коллекция программ для работы со звуком, графикой, дизайном, а так же множество плагинов и инструментов к ним с подробной инструкцией и рекомендациями. Прошивки для навигаторов, карты. Разнообразные игры, для Windows, Linux. В коллекцие есть и старые игры любых жанров, Rpg, Action, Shooter, strategy Множество дополнений, модификаций, сценариев для популярных игр в жанре экш, рпг, гонки, стратегии, логические игры. Множество аддонов и сценариев для Microsoft Flight Simulator Большая коллекция книг, учебников. Если нет возможности купить печатное издание - смело скачивайте цифровую версию книги или, быть может, журнала. Не любите читать - можно загрузить бесплатно аудикнигу. Для веб дизайнеров и программистов так же найдется множество специализированного софта, таких как: редакторы с подсветкой, среды программирования, компоненты, системы управления базами данных, разнообразные скрипты и шаблоны. Не так давно у нас появился материал для автолюбителей и владельцев мото - оригинальные и неоригинальные каталоги запчастей, книги и журналы по ремонту и обслуживанию, видеоуроки, статьи по чип тюнингу, прошивкам. Процедура получения контента элементарная, достаточно просто скачать торрент файл и добавить его в загрузку в вашем торрент клиенте. Если у вас нет специального торрент клиента, вы можете его скачать у нас.