(Melodic Rock | AOR) [CD] Station - Station - 2015, FLAC (image+.cue), lossless 

Цитировать

Station

Station




• Жанр: Melodic Rock | AOR
• Носитель: CD
• Издатель (лейбл) Electric Cheetah Records
• Номер по каталогу: ECR001
• Год издания: 2015
• Страна исполнителя (группы): USA
• Аудиокодек: FLAC (*.flac)
• Тип рипа: image+.cue
• Продолжительность: 01:11:17
• Источник (релизер): alzal ®
• Наличие сканов: да

01. I Don't Want To Know Your Name (00:04:30)
02. Everything (00:04:52)
03. Dressed To Kill (00:04:43)
04. Are You Sleeping Alone (00:05:27)
05. True Believer (00:03:53)
06. With Me Tonight (00:04:23)
07. Bitter With The Better (00:03:31)
08. More Than Enough (00:05:06)
09. No Way Out (00:03:29)
10. Waiting For You (00:06:50)
11. Never Say Never (00:04:19)
12. I Can't Live Without You (00:04:37)
13. Wildest Dreams (00:04:04)
14. Shot Of Life (00:05:59)
15. One And Only (00:05:25)
-

• Лог проверки качества

-----------------------
DON'T MODIFY THIS FILE
-----------------------
PERFORMER: auCDtect Task Manager, ver. 1.6.0 RC1 build 1.6.0.1Copyright (c) 2008-2010 y-soft. All rights reservedhttp://y-soft.org
ANALYZER: auCDtect: CD records authenticity detector, version 0.8.2Copyright (c) 2004 Oleg Berngardt. All rights reserved.Copyright (c) 2004 Alexander Djourik. All rights reserved.
FILE: Station - Station (ECR001).flac Size: 558634588 Hash: CFF3922D84957D40E627C538F9FD9E3D Accuracy: -m0 Conclusion: CDDA 100% Signature: 68BB6D5EC2F0BAD52856F6821A972EEEC78C9893
-

• Лог создания рипа

Exact Audio Copy V1.3 from 2. September 2016
Отчёт EAC об извлечении, выполненном 24. сентября 2018, 20:31
Station / Station (ECR001)
Дисковод: PLEXTOR BD-R PX-B950SA Adapter: 1 ID: 0
Режим чтения : ДостоверностьИспользование точного потока : ДаОтключение кэша аудио : ДаИспользование указателей C2 : Нет
Коррекция смещения при чтении : 6Способность читать области Lead-in и Lead-out : НетЗаполнение пропущенных сэмплов тишиной : ДаУдаление блоков с тишиной в начале и конце : НетПри вычислениях CRC использовались нулевые сэмплы : ДаИнтерфейс : Встроенный Win32-интерфейс для Win NT/2000
Выходной формат : Пользовательский кодировщикВыбранный битрейт : 1024 kBit/sКачество : ВысокийДобавление ID3-тега : НетУтилита сжатия : C:\Program Files (x86)\Exact Audio Copy\FLAC\FLAC.EXEДополнительные параметры : -6 -V -T "ARTIST=%artist%" -T "TITLE=%title%" -T "ALBUM=%albumtitle%" -T "DATE=%year%" -T "TRACKNUMBER=%tracknr%" -T "GENRE=%genre%" -T "COMMENT=%comment%" -T "BAND=%albuminterpret%" -T "ALBUMARTIST=%albuminterpret%" -T "COMPOSER=%composer%" %haslyrics%--tag-from-file=LYRICS="%lyricsfile%"%haslyrics% -T "DISCNUMBER=%cdnumber%" -T "TOTALDISCS=%totalcds%" -T "TOTALTRACKS=%numtracks%" %hascover%--picture="%coverfile%"%hascover% %source% -o %dest%
TOC извлечённого CD
Трек | Старт | Длительность | Начальный сектор | Конечный сектор --------------------------------------------------------------------- 1 | 0:00.00 | 4:31.72 | 0 | 20396 2 | 4:31.72 | 4:53.41 | 20397 | 42412 3 | 9:25.38 | 4:44.43 | 42413 | 63755 4 | 14:10.06 | 5:28.70 | 63756 | 88425 5 | 19:39.01 | 3:53.31 | 88426 | 105931 6 | 23:32.32 | 4:24.57 | 105932 | 125788 7 | 27:57.14 | 3:32.64 | 125789 | 141752 8 | 31:30.03 | 5:07.32 | 141753 | 164809 9 | 36:37.35 | 3:30.34 | 164810 | 180593 10 | 40:07.69 | 6:51.71 | 180594 | 211489 11 | 46:59.65 | 4:19.50 | 211490 | 230964 12 | 51:19.40 | 4:38.13 | 230965 | 251827 13 | 55:57.53 | 4:06.60 | 251828 | 270337 14 | 60:04.38 | 6:01.19 | 270338 | 297431 15 | 66:05.57 | 5:27.32 | 297432 | 321988
Характеристики диапазона извлечения и сообщения об ошибках
Выбранный диапазон
Имя файла G:\RIP\Station 2015 FLAC by alzal\Station - Station (ECR001).wav
Пиковый уровень 100.0 % Скорость извлечения 6.5 X Качество диапазона 100.0 % CRC теста 4952927E CRC копии 4952927E Копирование... OK
Ошибок не произошло
AccurateRip: сводка
Трек 1 : извлечено точно (доверие 3) [DE69BE4C] (AR v2)Трек 2 : извлечено точно (доверие 3) [B0FF888F] (AR v2)Трек 3 : извлечено точно (доверие 3) [B397BE63] (AR v2)Трек 4 : извлечено точно (доверие 3) [930B2C77] (AR v2)Трек 5 : извлечено точно (доверие 3) [D5CD6302] (AR v2)Трек 6 : извлечено точно (доверие 3) [4A4F2ECD] (AR v2)Трек 7 : извлечено точно (доверие 3) [77D68A83] (AR v2)Трек 8 : извлечено точно (доверие 3) [95C36E35] (AR v2)Трек 9 : извлечено точно (доверие 3) [1C9124E4] (AR v2)Трек 10 : извлечено точно (доверие 3) [B5259E8B] (AR v2)Трек 11 : извлечено точно (доверие 3) [81DB3D00] (AR v2)Трек 12 : извлечено точно (доверие 3) [BC53FA08] (AR v2)Трек 13 : извлечено точно (доверие 3) [6EAF2C64] (AR v2)Трек 14 : извлечено точно (доверие 3) [A0AD0E2C] (AR v2)Трек 15 : извлечено точно (доверие 3) [DA8DF0FA] (AR v2)
Все треки извлечены точно
Конец отчёта
---- CUETools DB Plugin V2.1.6
[CTDB TOCID: fUoZ09O.dTM_tmtgkU88ueLqwk8-] foundSubmit result: fUoZ09O.dTM_tmtgkU88ueLqwk8- has been confirmedTrack | CTDB Status 1 | (7/7) Accurately ripped 2 | (7/7) Accurately ripped 3 | (7/7) Accurately ripped 4 | (7/7) Accurately ripped 5 | (7/7) Accurately ripped 6 | (7/7) Accurately ripped 7 | (7/7) Accurately ripped 8 | (7/7) Accurately ripped 9 | (7/7) Accurately ripped 10 | (7/7) Accurately ripped 11 | (7/7) Accurately ripped 12 | (7/7) Accurately ripped 13 | (7/7) Accurately ripped 14 | (7/7) Accurately ripped 15 | (7/7) Accurately ripped
==== Контрольная сумма отчёта 3E03C7635949702EE52D24D602560F50C2345683BFBD76AC39944DCD2931782F ====
-

• Содержание индексной карты

REM GENRE "Melodic Rock | AOR"REM DATE 2015REM DISCID E810C50FREM COMMENT "ExactAudioCopy v1.3"PERFORMER "Station"TITLE "Station (ECR001)"REM COMPOSER ""FILE "Station - Station (ECR001).flac" WAVE  TRACK 01 AUDIO    TITLE "I Don't Want To Know Your Name"    PERFORMER "Station"    REM COMPOSER ""    INDEX 01 00:00:00  TRACK 02 AUDIO    TITLE "Everything"    PERFORMER "Station"    REM COMPOSER ""    INDEX 00 04:30:72    INDEX 01 04:31:72  TRACK 03 AUDIO    TITLE "Dressed To Kill"    PERFORMER "Station"    REM COMPOSER ""    INDEX 00 09:24:38    INDEX 01 09:25:38  TRACK 04 AUDIO    TITLE "Are You Sleeping Alone"    PERFORMER "Station"    REM COMPOSER ""    INDEX 00 14:09:06    INDEX 01 14:10:06  TRACK 05 AUDIO    TITLE "True Believer"    PERFORMER "Station"    REM COMPOSER ""    INDEX 00 19:38:01    INDEX 01 19:39:01  TRACK 06 AUDIO    TITLE "With Me Tonight"    PERFORMER "Station"    REM COMPOSER ""    INDEX 01 23:32:32  TRACK 07 AUDIO    TITLE "Bitter With The Better"    PERFORMER "Station"    REM COMPOSER ""    INDEX 00 27:56:14    INDEX 01 27:57:14  TRACK 08 AUDIO    TITLE "More Than Enough"    PERFORMER "Station"    REM COMPOSER ""    INDEX 00 31:29:03    INDEX 01 31:30:03  TRACK 09 AUDIO    TITLE "No Way Out"    PERFORMER "Station"    REM COMPOSER ""    INDEX 00 36:36:35    INDEX 01 36:37:35  TRACK 10 AUDIO    TITLE "Waiting For You"    PERFORMER "Station"    REM COMPOSER ""    INDEX 00 40:06:69    INDEX 01 40:07:69  TRACK 11 AUDIO    TITLE "Never Say Never"    PERFORMER "Station"    REM COMPOSER ""    INDEX 00 46:58:65    INDEX 01 46:59:65  TRACK 12 AUDIO    TITLE "I Can't Live Without You"    PERFORMER "Station"    REM COMPOSER ""    INDEX 01 51:19:40  TRACK 13 AUDIO    TITLE "Wildest Dreams"    PERFORMER "Station"    REM COMPOSER ""    INDEX 00 55:56:53    INDEX 01 55:57:53  TRACK 14 AUDIO    TITLE "Shot Of Life"    PERFORMER "Station"    REM COMPOSER ""    INDEX 00 60:02:38    INDEX 01 60:04:38  TRACK 15 AUDIO    TITLE "One And Only"    PERFORMER "Station"    REM COMPOSER ""    INDEX 00 66:03:57    INDEX 01 66:05:57
--
Вы не можете начинать темы
Вы не можете отвечать на сообщения
Вы не можете редактировать свои сообщения
Вы не можете удалять свои сообщения
Вы не можете голосовать в опросах
Вы не можете прикреплять файлы к сообщениям
Вы можете скачивать файлы
!ВНИМАНИЕ!

Сайт не предоставляет электронные версии произведений, а занимается лишь коллекционированием и каталогизацией ссылок, присылаемых и публикуемых на форуме нашими читателями. Если вы являетесь правообладателем какого-либо представленного материала и не желаете, чтобы ссылка на него находилась в нашем каталоге, свяжитесь с нами, и мы незамедлительно удалим ее. Файлы для обмена на трекере предоставлены пользователями сайта, и администрация не несет ответственности за их содержание. Просьба не заливать файлы, защищенные авторскими правами, а также файлы нелегального содержания!

Искали программы, игры, дополнения, музыка mp3, аниме, аудио книги, журналы? Добро пожаловать на свободный торрент трекер Torrents, у нас можно скачать бесплатно, без смс и регистрации и прочих ограничений лучшие, отборные сборки программ, игр. Скачать торрентом не составит труда даже не опытному пользователю. Раздачи ежедневно обновляются, только лучшие и качественные раздачи, подробные описания и скриншоты. Огромная коллекция программ для работы со звуком, графикой, дизайном, а так же множество плагинов и инструментов к ним с подробной инструкцией и рекомендациями. Прошивки для навигаторов, карты. Разнообразные игры, для Windows, Linux. В коллекцие есть и старые игры любых жанров, Rpg, Action, Shooter, strategy Множество дополнений, модификаций, сценариев для популярных игр в жанре экш, рпг, гонки, стратегии, логические игры. Множество аддонов и сценариев для Microsoft Flight Simulator Большая коллекция книг, учебников. Если нет возможности купить печатное издание - смело скачивайте цифровую версию книги или, быть может, журнала. Не любите читать - можно загрузить бесплатно аудикнигу. Для веб дизайнеров и программистов так же найдется множество специализированного софта, таких как: редакторы с подсветкой, среды программирования, компоненты, системы управления базами данных, разнообразные скрипты и шаблоны. Не так давно у нас появился материал для автолюбителей и владельцев мото - оригинальные и неоригинальные каталоги запчастей, книги и журналы по ремонту и обслуживанию, видеоуроки, статьи по чип тюнингу, прошивкам. Процедура получения контента элементарная, достаточно просто скачать торрент файл и добавить его в загрузку в вашем торрент клиенте. Если у вас нет специального торрент клиента, вы можете его скачать у нас.