(Pop Rock, Classic Rock) [CD] Tax The Heat - Change Your Position - 2018, FLAC (tracks), lossless 

Цитировать
Tax The Heat - Change Your Position- Жанр: Pop Rock, Classic Rock
Носитель: CD
Страна-производитель диска: EU
Год издания: 2018
Издатель-лейбл: Nuclear Blast Entertainment
Номер по каталогу: NB 4045-2, 27361 40452
Страна исполнителя: UK
Аудиокодек: FLAC (*.flac)
Тип рипа: tracks
Битрейт аудио: lossless
Продолжительность: 00:41:14
Источник (релизер): scene (RiBS)
Наличие сканов: нет

Треклист:
01. Money in the Bank (3:08)
02. Change Your Position (4:08)
03. Playing With Fire (4:06)
04. All That Medicine (2:58)
05. On the Run (2:53)
06. The Last Time (4:17)
07. Taking The Hit (3:01)
08. My Headspace (2:46)
09. We Are Consumers (3:12)
10. Cut Your Chains (3:43)
11. Wearing a Disguise (3:05)
12. The Symphony Has Begun (3:57)

auCDtect

PERFORMER: auCDtect Task Manager, ver. 1.6.0 RC1 build 1.6.0.1Copyright (c) 2008-2010 y-soft. All rights reservedhttp://y-soft.org
ANALYZER: auCDtect: CD records authenticity detector, version 0.8.2Copyright (c) 2004 Oleg Berngardt. All rights reserved.Copyright (c) 2004 Alexander Djourik. All rights reserved.
FILE: 12 The Symphony Has Begun.flac Size: 28843333 Hash: BFAA6532487C89F41539E543F964EF9C Accuracy: -m0 Conclusion: CDDA 100% Signature: 0BF7CC118DA7E735BA9AD1B60051E603FC765A83FILE: 11 Wearing a Disguise.flac Size: 23555743 Hash: E84B65E0222D049E630A5ABC9C5BE79D Accuracy: -m0 Conclusion: MPEG 73% Signature: EE7C0A071444A8E252EA0BA2D7700C023C140B0DFILE: 10 Cut Your Chains.flac Size: 29853826 Hash: 74EE93094ED23BA449FC257DB4C617C7 Accuracy: -m0 Conclusion: MPEG 90% Signature: 84AF3C9ADCB7CF9516BB22641C47AAF987831804FILE: 09 We Are Consumers.flac Size: 25116660 Hash: 32743180AE2911D9D0813DA7B856931C Accuracy: -m0 Conclusion: CDDA 92% Signature: DBA9B03FC26FE44126980A0E442FB84BCBB9FBBDFILE: 08 My Headspace.flac Size: 23567073 Hash: 4FF67867CBF8605E6BEA43CC2CABA72E Accuracy: -m0 Conclusion: MPEG 92% Signature: 2F7615B1D0ACE26631B8B64303FA2C5035C918FDFILE: 07 Taking The Hit.flac Size: 24065309 Hash: CE3DB49620D61A9D2C90C5A3FC579B52 Accuracy: -m0 Conclusion: CDDA 54% Signature: 01294267A21E3DB05DAECA02EB06392BF3C741A6FILE: 06 The Last Time.flac Size: 30263441 Hash: 976B0580E5F2028972046C4D86FD8C9B Accuracy: -m0 Conclusion: MPEG 85% Signature: 008C08C209765F28E6370523802413A76444DBC8FILE: 05 On the Run.flac Size: 22444609 Hash: F79E7AD3CA5DC89581C875803842C88A Accuracy: -m0 Conclusion: CDDA 85% Signature: 6770EE83A6EA3057B1B2E5261675CE3A27782AB5FILE: 04 All That Medicine.flac Size: 23043845 Hash: 46363D8093253A815BEF575B09FB9FC6 Accuracy: -m0 Conclusion: CDDA 85% Signature: 81B1D8D5A7B38353CB71E92976178A00A06B9F99FILE: 03 Playing With Fire.flac Size: 31256011 Hash: A3A9B64405A8ABD8A918402DE4AD0B22 Accuracy: -m0 Conclusion: CDDA 58% Signature: E89DD4B674F4887DA180C142B725CCB22F3E5E2DFILE: 02 Change Your Position.flac Size: 31204223 Hash: 46466B3461DB515D973FD9C2C9B3587E Accuracy: -m0 Conclusion: MPEG 79% Signature: 33585231EA60BD62052A168E734DEFE4598C1AC4FILE: 01 Money in the Bank.flac Size: 23626628 Hash: 5127FABCCF013071FAE5F9A15565BE76 Accuracy: -m0 Conclusion: CDDA 100% Signature: 44DE7380650BDF4D1DE64403FCFF9E9BFC84C2BA

CUETools

[CUETools log; Date: 10.10.2018 0:44:03; Version: 2.1.6][CTDB TOCID: CxxgrXfAoMEScsEPKI_t7HCwOeM-] found.Track | CTDB Status  1   | (4/4) Accurately ripped  2   | (4/4) Accurately ripped  3   | (4/4) Accurately ripped  4   | (4/4) Accurately ripped  5   | (4/4) Accurately ripped  6   | (4/4) Accurately ripped  7   | (4/4) Accurately ripped  8   | (4/4) Accurately ripped  9   | (4/4) Accurately ripped 10   | (4/4) Accurately ripped 11   | (4/4) Accurately ripped 12   | (4/4) Accurately ripped[AccurateRip ID: 00128932-00ac1760-a009ab0c] found.Track   [  CRC   |   V2   ] Status 01     [48bd9833|1ed9c7dd] (0+0/5) No match 02     [c4b674de|6af89070] (0+0/5) No match 03     [79033862|12100a3e] (0+0/5) No match 04     [6b2141bd|89fb7ab0] (0+0/5) No match 05     [31c44847|0f750660] (0+0/5) No match 06     [8d6cede0|8afe1b8e] (0+0/5) No match 07     [b812d981|2468a48f] (0+0/5) No match 08     [b5ffac0a|0e928610] (0+0/5) No match 09     [ca221744|a07e44be] (0+0/5) No match 10     [7baa9eee|1a1aa8b0] (0+0/5) No match 11     [00460b64|8447861b] (0+0/5) No match 12     [0e0e2d6e|527de4a1] (0+0/5) No matchOffsetted by 6: 01     [ddb34166] (0/5) No match (V2 was not tested) 02     [fd438fcf] (0/5) No match (V2 was not tested) 03     [582bf1c4] (0/5) No match (V2 was not tested) 04     [f98998c7] (0/5) No match (V2 was not tested) 05     [b8e6727a] (0/5) No match (V2 was not tested) 06     [d7ad1439] (0/5) No match (V2 was not tested) 07     [cbe19eda] (0/5) No match (V2 was not tested) 08     [41cf23d4] (0/5) No match (V2 was not tested) 09     [4eddb0b5] (0/5) No match (V2 was not tested) 10     [d7ea5a5c] (0/5) No match (V2 was not tested) 11     [af582c70] (0/5) No match (V2 was not tested) 12     [db32cf8a] (0/5) No match (V2 was not tested)
Track Peak [ CRC32 ] [W/O NULL] -- 97,9 [DA6D79F7] [C392E067] 01 97,9 [E8CE5F68] [F673105D] 02 97,9 [4B76D5FF] [23F859A4] 03 97,9 [6AD4C2F1] [C47BB917] 04 97,9 [D57BF99D] [19360F67] 05 97,9 [F55A88B0] [78D7B1AD] 06 97,9 [AD3850B8] [2365567C] 07 97,9 [83785686] [5EEB3DAE] 08 97,9 [E9852BF6] [0AD61422] 09 97,9 [7E3AA241] [10D5B36A] 10 97,9 [81430E4C] [231701DE] 11 97,9 [39783C25] [D5A8AFF2] 12 97,9 [A0F3738B] [BA8A8B43]

DR

foobar2000 1.4 / Замер динамического диапазона (DR) 1.1.1Дата отчёта:  2018-10-10 00:46:34
--------------------------------------------------------------------------------Анализ: Tax The Heat / Change Your Position--------------------------------------------------------------------------------
DR Пики RMS Продолжительность трека--------------------------------------------------------------------------------DR7 -0.18 дБ -8.39 дБ 3:08 01-Money in the BankDR7 -0.18 дБ -8.34 дБ 4:08 02-Change Your PositionDR7 -0.18 дБ -8.06 дБ 4:06 03-Playing With FireDR7 -0.18 дБ -8.69 дБ 2:58 04-All That MedicineDR7 -0.18 дБ -7.47 дБ 2:53 05-On the RunDR8 -0.18 дБ -9.40 дБ 4:17 06-The Last TimeDR7 -0.18 дБ -7.46 дБ 3:01 07-Taking The HitDR7 -0.18 дБ -7.53 дБ 2:46 08-My HeadspaceDR7 -0.18 дБ -7.88 дБ 3:12 09-We Are ConsumersDR7 -0.18 дБ -8.06 дБ 3:43 10-Cut Your ChainsDR7 -0.18 дБ -8.49 дБ 3:05 11-Wearing a DisguiseDR8 -0.18 дБ -9.39 дБ 3:57 12-The Symphony Has Begun--------------------------------------------------------------------------------
Количество треков: 12Реальные значения DR: DR7
Частота: 44100 ГцКаналов: 2Разрядность: 16Битрейт: 972 кбит/сКодек: FLAC================================================================================

foto

Вы не можете начинать темы
Вы не можете отвечать на сообщения
Вы не можете редактировать свои сообщения
Вы не можете удалять свои сообщения
Вы не можете голосовать в опросах
Вы не можете прикреплять файлы к сообщениям
Вы можете скачивать файлы
!ВНИМАНИЕ!

Сайт не предоставляет электронные версии произведений, а занимается лишь коллекционированием и каталогизацией ссылок, присылаемых и публикуемых на форуме нашими читателями. Если вы являетесь правообладателем какого-либо представленного материала и не желаете, чтобы ссылка на него находилась в нашем каталоге, свяжитесь с нами, и мы незамедлительно удалим ее. Файлы для обмена на трекере предоставлены пользователями сайта, и администрация не несет ответственности за их содержание. Просьба не заливать файлы, защищенные авторскими правами, а также файлы нелегального содержания!

Искали программы, игры, дополнения, музыка mp3, аниме, аудио книги, журналы? Добро пожаловать на свободный торрент трекер Torrents, у нас можно скачать бесплатно, без смс и регистрации и прочих ограничений лучшие, отборные сборки программ, игр. Скачать торрентом не составит труда даже не опытному пользователю. Раздачи ежедневно обновляются, только лучшие и качественные раздачи, подробные описания и скриншоты. Огромная коллекция программ для работы со звуком, графикой, дизайном, а так же множество плагинов и инструментов к ним с подробной инструкцией и рекомендациями. Прошивки для навигаторов, карты. Разнообразные игры, для Windows, Linux. В коллекцие есть и старые игры любых жанров, Rpg, Action, Shooter, strategy Множество дополнений, модификаций, сценариев для популярных игр в жанре экш, рпг, гонки, стратегии, логические игры. Множество аддонов и сценариев для Microsoft Flight Simulator Большая коллекция книг, учебников. Если нет возможности купить печатное издание - смело скачивайте цифровую версию книги или, быть может, журнала. Не любите читать - можно загрузить бесплатно аудикнигу. Для веб дизайнеров и программистов так же найдется множество специализированного софта, таких как: редакторы с подсветкой, среды программирования, компоненты, системы управления базами данных, разнообразные скрипты и шаблоны. Не так давно у нас появился материал для автолюбителей и владельцев мото - оригинальные и неоригинальные каталоги запчастей, книги и журналы по ремонту и обслуживанию, видеоуроки, статьи по чип тюнингу, прошивкам. Процедура получения контента элементарная, достаточно просто скачать торрент файл и добавить его в загрузку в вашем торрент клиенте. Если у вас нет специального торрент клиента, вы можете его скачать у нас.