(Melodic Rock/AOR) [CD] Creye - Creye (Japanese Edition) - 2018, FLAC (image+.cue), lossless 

Цитировать
Creye / Creye (2018)
Жанр: Melodic Rock / AOR
Носитель: CD
Страна-производитель диска (релиза): Japan
Год издания: 2018
Издатель (лейбл): Avalon Marquee
Номер по каталогу: MICP-11442
Страна исполнителя (группы): Sweden
Аудиокодек: FLAC (*.flac)
Тип рипа: image+.cue
Битрейт аудио: lossless
Продолжительность: 54:26
Источник (релизер): собственный рип
Наличие сканов в содержимом раздачи: да
Треклист:
1. Holding On - 4:34
2. Nothing To Lose - 4:12
3. Different State Of Mind - 3:07
4. Never Too Late - 3:42
5. All We Need Is Faith - 4:13
6. Miracle - 3:13
7. Christina - 3:29
8. Straight To The Top - 4:15
9. Love Will Never Die - 3:38
10. Still Believe In You - 3:30
11. City Lights - 4:05
12. Desperately Lovin’ - 4:29
13. A Better Way - 4:19
14. Straight To The Top (acoustic bonus track) - 3:40

Лог создания рипа

Exact Audio Copy V1.0 beta 3 from 29. August 2011
EAC extraction logfile from 6. October 2018, 18:57
Creye / Creye
Used drive : SlimtypeDVD A DS8A5SH Adapter: 0 ID: 0
Read mode : SecureUtilize accurate stream : YesDefeat audio cache : YesMake use of C2 pointers : No
Read offset correction : 6Overread into Lead-In and Lead-Out : NoFill up missing offset samples with silence : YesDelete leading and trailing silent blocks : NoNull samples used in CRC calculations : YesUsed interface : Installed external ASPI interface
Used output format : User Defined EncoderSelected bitrate : 320 kBit/sQuality : HighAdd ID3 tag : NoCommand line compressor : C:\Program Files (x86)\Exact Audio Copy\Flac\flac.exeAdditional command line options : -V -8 -T "Date=%year%" -T "Genre=%genre%" %source%
TOC of the extracted CD
Track | Start | Length | Start sector | End sector --------------------------------------------------------- 1 | 0:00.00 | 4:34.11 | 0 | 20560 2 | 4:34.11 | 4:12.24 | 20561 | 39484 3 | 8:46.35 | 3:06.68 | 39485 | 53502 4 | 11:53.28 | 3:41.46 | 53503 | 70123 5 | 15:34.74 | 4:12.61 | 70124 | 89084 6 | 19:47.60 | 3:12.41 | 89085 | 103525 7 | 23:00.26 | 3:29.36 | 103526 | 119236 8 | 26:29.62 | 4:14.51 | 119237 | 138337 9 | 30:44.38 | 3:37.60 | 138338 | 154672 10 | 34:22.23 | 3:30.29 | 154673 | 170451 11 | 37:52.52 | 4:05.15 | 170452 | 188841 12 | 41:57.67 | 4:28.55 | 188842 | 208996 13 | 46:26.47 | 4:19.20 | 208997 | 228441 14 | 50:45.67 | 3:40.07 | 228442 | 244948
Range status and errors
Selected range
Filename D:\My Music\Creye - 2018 Creye\Creye - Creye.wav
Peak level 97.6 % Extraction speed 1.8 X Range quality 100.0 % Test CRC D2C8A7CE Copy CRC D2C8A7CE Copy OK
No errors occurred
AccurateRip summary
Track 1 not present in databaseTrack 2 not present in databaseTrack 3 not present in databaseTrack 4 not present in databaseTrack 5 not present in databaseTrack 6 not present in databaseTrack 7 not present in databaseTrack 8 not present in databaseTrack 9 not present in databaseTrack 10 not present in databaseTrack 11 not present in databaseTrack 12 not present in databaseTrack 13 not present in databaseTrack 14 not present in database
None of the tracks are present in the AccurateRip database
End of status report
==== Log checksum EBDCCBF491566AD0BDE58E3D5AD1E806D7A47F992DC75CD0514F553C47378FB9 ====

Состав

Robin Jidhed - lead vocals
Andreas Gullstrand - lead guitar
Fredrik Joakimsson - rhythm guitar
Gustaf Orsta - bass
Joel Ronning - keyboards
Arvid Filipsson - drums
Вы не можете начинать темы
Вы не можете отвечать на сообщения
Вы не можете редактировать свои сообщения
Вы не можете удалять свои сообщения
Вы не можете голосовать в опросах
Вы не можете прикреплять файлы к сообщениям
Вы можете скачивать файлы
!ВНИМАНИЕ!

Сайт не предоставляет электронные версии произведений, а занимается лишь коллекционированием и каталогизацией ссылок, присылаемых и публикуемых на форуме нашими читателями. Если вы являетесь правообладателем какого-либо представленного материала и не желаете, чтобы ссылка на него находилась в нашем каталоге, свяжитесь с нами, и мы незамедлительно удалим ее. Файлы для обмена на трекере предоставлены пользователями сайта, и администрация не несет ответственности за их содержание. Просьба не заливать файлы, защищенные авторскими правами, а также файлы нелегального содержания!

Искали программы, игры, дополнения, музыка mp3, аниме, аудио книги, журналы? Добро пожаловать на свободный торрент трекер Torrents, у нас можно скачать бесплатно, без смс и регистрации и прочих ограничений лучшие, отборные сборки программ, игр. Скачать торрентом не составит труда даже не опытному пользователю. Раздачи ежедневно обновляются, только лучшие и качественные раздачи, подробные описания и скриншоты. Огромная коллекция программ для работы со звуком, графикой, дизайном, а так же множество плагинов и инструментов к ним с подробной инструкцией и рекомендациями. Прошивки для навигаторов, карты. Разнообразные игры, для Windows, Linux. В коллекцие есть и старые игры любых жанров, Rpg, Action, Shooter, strategy Множество дополнений, модификаций, сценариев для популярных игр в жанре экш, рпг, гонки, стратегии, логические игры. Множество аддонов и сценариев для Microsoft Flight Simulator Большая коллекция книг, учебников. Если нет возможности купить печатное издание - смело скачивайте цифровую версию книги или, быть может, журнала. Не любите читать - можно загрузить бесплатно аудикнигу. Для веб дизайнеров и программистов так же найдется множество специализированного софта, таких как: редакторы с подсветкой, среды программирования, компоненты, системы управления базами данных, разнообразные скрипты и шаблоны. Не так давно у нас появился материал для автолюбителей и владельцев мото - оригинальные и неоригинальные каталоги запчастей, книги и журналы по ремонту и обслуживанию, видеоуроки, статьи по чип тюнингу, прошивкам. Процедура получения контента элементарная, достаточно просто скачать торрент файл и добавить его в загрузку в вашем торрент клиенте. Если у вас нет специального торрент клиента, вы можете его скачать у нас.