(Tech House, Minimal, House) [2xCD] VA - Каzантип Z:16 by Преzидент - 2008, FLAC (tracks+.cue), lossless 

Цитировать
Каzантип Z:16 by Преzидент
Жанр: Tech House, Minimal, House
Носитель: CD
Год издания: 2008
Издатель (лейбл): World Club Music
Номер по каталогу: ПРЗ CD22990
Аудиокодек: FLAC (*.flac)
Тип рипа: tracks+.cue
Битрейт аудио: lossless
Продолжительность: 02:02:24
Источник (релизер): red
Наличие сканов в содержимом раздачи: нет
Треклист:
CD 1
01. Moorush - Oid Part II (5:38)
02. Masha Era - Hello (3:03)
03. Vadim Lankov - Start The Trip (Andrey Loud Remix) (4:45)
04. Maris - Unforgiven (4:52)
05. Bip Soup - Coder (4:03)
06. Andrey Loud - No Smell (Daclip Dub Mix) (4:03)
07. Agent Smith - I Want Too (6:09)
08. Punk TV - Snow Boy (TV Star Mix) (5:49)
09. Professor Morriarti - Just A Mystic Smile (RO 2008 Remix) (8:21)
10. Seva K - Far Away (4:14)
11. BarBQ - Maria (5:34)
12. Kooqla - In My Mind (4:23)
CD 2
01. Midiots - Richards Clicks (6:20)
02. Les Specialistes feat. Jucy - Over (Love Song) (5:21)
03. Andrey Loud - Gentle Rain (5:04)
04. SCSI-9 - Cologne (3:33)
05. Spy.der - Passengers (6:03)
06. Bvoice & Khz - Highway Matadors (4:50)
07. Miusha - Out Of Mind (4:03)
08. SCSI-9 - Too Many Gates (5:27)
09. Valique - Highway To Kyev (5:04)
10. Mujuice - Come Home! (6:05)
11. Moorush - Svit (5:59)
12. Triangle Sun - When The Rain Comes Falling Down (3:42)

logs and sheets

Log EAC CD 1

Exact Audio Copy V1.0 beta 1 from 15. November 2010
EAC extraction logfile from 25. February 2011, 20:05
Various / Kazantip 2:16 CD1
Used drive : Optiarc DVD RW AD-7201A Adapter: 0 ID: 0
Read mode : SecureUtilize accurate stream : YesDefeat audio cache : YesMake use of C2 pointers : No
Read offset correction : 48Overread into Lead-In and Lead-Out : NoFill up missing offset samples with silence : YesDelete leading and trailing silent blocks : NoNull samples used in CRC calculations : YesUsed interface : Native Win32 interface for Win NT & 2000Gap handling : Appended to previous track
Used output format : User Defined EncoderSelected bitrate : 896 kBit/sQuality : HighAdd ID3 tag : NoCommand line compressor : C:\Program Files\Exact Audio Copy\Flac\flac.exeAdditional command line options : -8 -V -T "ARTIST=%a" -T "TITLE=%t" -T "ALBUM=%g" -T "DATE=%y" -T "TRACKNUMBER=%n" -T "TOTALTRACKS=%x" -T "GENRE=%m" -T "ALBUM ARTIST=%v" -T "ALBUMARTIST=%v" -T "COMMENT=EAC V1.0 Beta 1, Secure Mode, Test & Copy, AccurateRip
TOC of the extracted CD
Track | Start | Length | Start sector | End sector --------------------------------------------------------- 1 | 0:00.00 | 5:38.03 | 0 | 25352 2 | 5:38.03 | 3:02.43 | 25353 | 39045 3 | 8:40.46 | 4:44.53 | 39046 | 60398 4 | 13:25.24 | 4:52.37 | 60399 | 82335 5 | 18:17.61 | 4:03.02 | 82336 | 100562 6 | 22:20.63 | 4:02.60 | 100563 | 118772 7 | 26:23.48 | 6:08.41 | 118773 | 146413 8 | 32:32.14 | 5:49.28 | 146414 | 172616 9 | 38:21.42 | 8:21.18 | 172617 | 210209 10 | 46:42.60 | 4:14.31 | 210210 | 229290 11 | 50:57.16 | 5:34.13 | 229291 | 254353 12 | 56:31.29 | 4:23.11 | 254354 | 274089
Track 1
Filename H:\Torrents\VA - Kazantip 2-16 (2008) [FLAC]\CD1\01. Moorush - Oid Part II.wav
Pre-gap length 0:00:02.00
Peak level 98.8 % Extraction speed 1.8 X Track quality 99.9 % Test CRC 4A79596D Copy CRC 4A79596D Track not present in AccurateRip database Copy OK
Track 2
Filename H:\Torrents\VA - Kazantip 2-16 (2008) [FLAC]\CD1\02. Masha Era - Hello.wav
Peak level 98.8 % Extraction speed 2.1 X Track quality 100.0 % Test CRC F3103556 Copy CRC F3103556 Track not present in AccurateRip database Copy OK
Track 3
Filename H:\Torrents\VA - Kazantip 2-16 (2008) [FLAC]\CD1\03. Vadim Lankov - Start The Trip (Andrey Loud Remix).wav
Peak level 98.8 % Extraction speed 2.5 X Track quality 100.0 % Test CRC 173EB30D Copy CRC 173EB30D Track not present in AccurateRip database Copy OK
Track 4
Filename H:\Torrents\VA - Kazantip 2-16 (2008) [FLAC]\CD1\04. Maris - Unforgiven.wav
Peak level 98.8 % Extraction speed 2.7 X Track quality 100.0 % Test CRC ED0C6136 Copy CRC ED0C6136 Track not present in AccurateRip database Copy OK
Track 5
Filename H:\Torrents\VA - Kazantip 2-16 (2008) [FLAC]\CD1\05. Bip Soup - Coder.wav
Peak level 98.8 % Extraction speed 2.8 X Track quality 100.0 % Test CRC FDBA157F Copy CRC FDBA157F Track not present in AccurateRip database Copy OK
Track 6
Filename H:\Torrents\VA - Kazantip 2-16 (2008) [FLAC]\CD1\06. Andrey Loud - No Smell (Daclip Dub Mix).wav
Peak level 98.8 % Extraction speed 3.6 X Track quality 100.0 % Test CRC 3AE279C1 Copy CRC 3AE279C1 Track not present in AccurateRip database Copy OK
Track 7
Filename H:\Torrents\VA - Kazantip 2-16 (2008) [FLAC]\CD1\07. Agent Smith - I Want Too.wav
Peak level 98.8 % Extraction speed 3.9 X Track quality 100.0 % Test CRC 7474C438 Copy CRC 7474C438 Track not present in AccurateRip database Copy OK
Track 8
Filename H:\Torrents\VA - Kazantip 2-16 (2008) [FLAC]\CD1\08. Punk TV - Snow Boy (TV Star Mix).wav
Peak level 98.9 % Extraction speed 4.2 X Track quality 100.0 % Test CRC 476199A4 Copy CRC 476199A4 Track not present in AccurateRip database Copy OK
Track 9
Filename H:\Torrents\VA - Kazantip 2-16 (2008) [FLAC]\CD1\09. Professor Morriarti - Just A Mystic Smile (RO 2008 Remix).wav
Peak level 98.9 % Extraction speed 4.7 X Track quality 100.0 % Test CRC 6FA3A04C Copy CRC 6FA3A04C Track not present in AccurateRip database Copy OK
Track 10
Filename H:\Torrents\VA - Kazantip 2-16 (2008) [FLAC]\CD1\10. Seva K - Far Away.wav
Peak level 98.9 % Extraction speed 4.6 X Track quality 100.0 % Test CRC 2780F5E3 Copy CRC 2780F5E3 Track not present in AccurateRip database Copy OK
Track 11
Filename H:\Torrents\VA - Kazantip 2-16 (2008) [FLAC]\CD1\11. BarBQ - Maria.wav
Peak level 98.8 % Extraction speed 4.9 X Track quality 100.0 % Test CRC 7163C0BD Copy CRC 7163C0BD Track not present in AccurateRip database Copy OK
Track 12
Filename H:\Torrents\VA - Kazantip 2-16 (2008) [FLAC]\CD1\12. Kooqla - In My Mind.wav
Peak level 98.8 % Extraction speed 4.9 X Track quality 100.0 % Test CRC 1275F204 Copy CRC 1275F204 Track not present in AccurateRip database Copy OK
None of the tracks are present in the AccurateRip database
No errors occurred
End of status report
==== Log checksum 2127DDD3ABD02132A39D14935E1C32D8A8779DFD2BB402C508CF28836E72B4E3 ====

cue CD 1

REM GENRE "Tech House, Minimal"REM DATE 2008REM DISCID 9D0E460CREM COMMENT "ExactAudioCopy v1.0b1"PERFORMER "Various"TITLE "Kazantip 2:16 CD1"FILE "01. Moorush - Oid Part II.wav" WAVE  TRACK 01 AUDIO    TITLE "Oid Part II"    PERFORMER "Moorush"    INDEX 01 00:00:00FILE "02. Masha Era - Hello.wav" WAVE  TRACK 02 AUDIO    TITLE "Hello"    PERFORMER "Masha Era"    INDEX 01 00:00:00FILE "03. Vadim Lankov - Start The Trip (Andrey Loud Remix).wav" WAVE  TRACK 03 AUDIO    TITLE "Start The Trip (Andrey Loud Remix)"    PERFORMER "Vadim Lankov"    INDEX 01 00:00:00FILE "04. Maris - Unforgiven.wav" WAVE  TRACK 04 AUDIO    TITLE "Unforgiven"    PERFORMER "Maris"    INDEX 01 00:00:00FILE "05. Bip Soup - Coder.wav" WAVE  TRACK 05 AUDIO    TITLE "Coder"    PERFORMER "Bip Soup"    INDEX 01 00:00:00FILE "06. Andrey Loud - No Smell (Daclip Dub Mix).wav" WAVE  TRACK 06 AUDIO    TITLE "No Smell (Daclip Dub Mix)"    PERFORMER "Andrey Loud"    INDEX 01 00:00:00FILE "07. Agent Smith - I Want Too.wav" WAVE  TRACK 07 AUDIO    TITLE "I Want Too"    PERFORMER "Agent Smith"    INDEX 01 00:00:00FILE "08. Punk TV - Snow Boy (TV Star Mix).wav" WAVE  TRACK 08 AUDIO    TITLE "Snow Boy (TV Star Mix)"    PERFORMER "Punk TV"    INDEX 01 00:00:00FILE "09. Professor Morriarti - Just A Mystic Smile (RO 2008 Remix).wav" WAVE  TRACK 09 AUDIO    TITLE "Just A Mystic Smile (RO 2008 Remix)"    PERFORMER "Professor Morriarti"    INDEX 01 00:00:00FILE "10. Seva K - Far Away.wav" WAVE  TRACK 10 AUDIO    TITLE "Far Away"    PERFORMER "Seva K"    INDEX 01 00:00:00FILE "11. BarBQ - Maria.wav" WAVE  TRACK 11 AUDIO    TITLE "Maria"    PERFORMER "BarBQ"    INDEX 01 00:00:00FILE "12. Kooqla - In My Mind.wav" WAVE  TRACK 12 AUDIO    TITLE "In My Mind"    PERFORMER "Kooqla"    INDEX 01 00:00:00

Log EAC CD 2

Exact Audio Copy V1.0 beta 1 from 15. November 2010
EAC extraction logfile from 25. February 2011, 20:29
Various / Kazantip 2:16 CD2
Used drive : OPTIARC DVD-ROM DDU1678A Adapter: 0 ID: 1
Read mode : SecureUtilize accurate stream : YesDefeat audio cache : YesMake use of C2 pointers : No
Read offset correction : 6Overread into Lead-In and Lead-Out : NoFill up missing offset samples with silence : YesDelete leading and trailing silent blocks : NoNull samples used in CRC calculations : YesUsed interface : Native Win32 interface for Win NT & 2000Gap handling : Appended to previous track
Used output format : User Defined EncoderSelected bitrate : 896 kBit/sQuality : HighAdd ID3 tag : NoCommand line compressor : C:\Program Files\Exact Audio Copy\Flac\flac.exeAdditional command line options : -8 -V -T "ARTIST=%a" -T "TITLE=%t" -T "ALBUM=%g" -T "DATE=%y" -T "TRACKNUMBER=%n" -T "TOTALTRACKS=%x" -T "GENRE=%m" -T "ALBUM ARTIST=%v" -T "ALBUMARTIST=%v" -T "COMMENT=EAC V1.0 Beta 1, Secure Mode, Test & Copy, AccurateRip
TOC of the extracted CD
Track | Start | Length | Start sector | End sector --------------------------------------------------------- 1 | 0:00.00 | 6:19.71 | 0 | 28495 2 | 6:19.71 | 5:20.48 | 28496 | 52543 3 | 11:40.44 | 5:04.01 | 52544 | 75344 4 | 16:44.45 | 3:32.48 | 75345 | 91292 5 | 20:17.18 | 6:02.49 | 91293 | 118491 6 | 26:19.67 | 4:50.37 | 118492 | 140278 7 | 31:10.29 | 4:03.02 | 140279 | 158505 8 | 35:13.31 | 5:26.40 | 158506 | 182995 9 | 40:39.71 | 5:03.60 | 182996 | 205780 10 | 45:43.56 | 6:04.43 | 205781 | 233123 11 | 51:48.24 | 5:59.11 | 233124 | 260059 12 | 57:47.35 | 3:41.51 | 260060 | 276685
Track 1
Filename H:\Torrents\VA - Kazantip 2-16 (2008) [FLAC]\CD2\01. Midiots - Richards Clicks.wav
Pre-gap length 0:00:02.00
Peak level 98.8 % Extraction speed 1.9 X Track quality 100.0 % Test CRC A22B6923 Copy CRC A22B6923 Track not present in AccurateRip database Copy OK
Track 2
Filename H:\Torrents\VA - Kazantip 2-16 (2008) [FLAC]\CD2\02. Les Specialistes feat. Jucy - Over (Love Song).wav
Peak level 98.8 % Extraction speed 2.2 X Track quality 100.0 % Test CRC 0EEECF54 Copy CRC 0EEECF54 Track not present in AccurateRip database Copy OK
Track 3
Filename H:\Torrents\VA - Kazantip 2-16 (2008) [FLAC]\CD2\03. Andrey Loud - Gentle Rain.wav
Peak level 98.9 % Extraction speed 2.4 X Track quality 100.0 % Test CRC 6CA5731B Copy CRC 6CA5731B Track not present in AccurateRip database Copy OK
Track 4
Filename H:\Torrents\VA - Kazantip 2-16 (2008) [FLAC]\CD2\04. SCSI-9 - Cologne.wav
Peak level 98.8 % Extraction speed 2.4 X Track quality 100.0 % Test CRC D5E6F17A Copy CRC D5E6F17A Track not present in AccurateRip database Copy OK
Track 5
Filename H:\Torrents\VA - Kazantip 2-16 (2008) [FLAC]\CD2\05. Spy.der - Passengers.wav
Copy aborted
Track 6
Filename H:\Torrents\VA - Kazantip 2-16 (2008) [FLAC]\CD2\06. Bvoice & Khz - Highway Matadors.wav
Peak level 98.9 % Extraction speed 3.1 X Track quality 100.0 % Test CRC 4D2991A7 Copy CRC 4D2991A7 Track not present in AccurateRip database Copy OK
Track 7
Filename H:\Torrents\VA - Kazantip 2-16 (2008) [FLAC]\CD2\07. Miusha - Out Of Mind.wav
Peak level 98.9 % Extraction speed 3.1 X Track quality 100.0 % Test CRC 5FCB1D07 Copy CRC 5FCB1D07 Track not present in AccurateRip database Copy OK
Track 8
Filename H:\Torrents\VA - Kazantip 2-16 (2008) [FLAC]\CD2\08. SCSI-9 - Too Many Gates.wav
Peak level 98.9 % Extraction speed 3.3 X Track quality 100.0 % Test CRC 28EF26B8 Copy CRC 28EF26B8 Track not present in AccurateRip database Copy OK
Track 9
Filename H:\Torrents\VA - Kazantip 2-16 (2008) [FLAC]\CD2\09. Valique - Highway To Kyev.wav
Peak level 98.9 % Extraction speed 3.0 X Track quality 100.0 % Test CRC 1D90AC5E Copy CRC 1D90AC5E Track not present in AccurateRip database Copy OK
Track 10
Filename H:\Torrents\VA - Kazantip 2-16 (2008) [FLAC]\CD2\10. Mujuice - Come Home!.wav
Peak level 98.9 % Extraction speed 3.1 X Track quality 99.9 % Test CRC 288A6945 Copy CRC 288A6945 Track not present in AccurateRip database Copy OK
Track 11
Filename H:\Torrents\VA - Kazantip 2-16 (2008) [FLAC]\CD2\11. Moorush - Svit.wav
Peak level 98.9 % Extraction speed 3.6 X Track quality 100.0 % Test CRC E2780265 Copy CRC E2780265 Track not present in AccurateRip database Copy OK
Track 12
Filename H:\Torrents\VA - Kazantip 2-16 (2008) [FLAC]\CD2\12. Triangle Sun - When The Rain Comes Falling Down.wav
Peak level 98.8 % Extraction speed 3.6 X Track quality 100.0 % Test CRC 681CE6E2 Copy CRC 681CE6E2 Track not present in AccurateRip database Copy OK
11 track(s) not present in the AccurateRip database 1 track(s) not fully ripped for AccurateRip lookup
No tracks could be verified as accurate
No errors occurred
End of status report
==== Log checksum 650F55061B734CB698ACE7839930FAA1A3D02DC53AA345541347AFAD1685A069 ====
------------------------------------------------------------
Exact Audio Copy V1.0 beta 1 from 15. November 2010
EAC extraction logfile from 25. February 2011, 20:36
Various / Kazantip 2:16 CD2
Used drive : OPTIARC DVD-ROM DDU1678A Adapter: 0 ID: 1
Read mode : SecureUtilize accurate stream : YesDefeat audio cache : YesMake use of C2 pointers : No
Read offset correction : 6Overread into Lead-In and Lead-Out : NoFill up missing offset samples with silence : YesDelete leading and trailing silent blocks : NoNull samples used in CRC calculations : YesUsed interface : Native Win32 interface for Win NT & 2000Gap handling : Appended to previous track
Used output format : User Defined EncoderSelected bitrate : 896 kBit/sQuality : HighAdd ID3 tag : NoCommand line compressor : C:\Program Files\Exact Audio Copy\Flac\flac.exeAdditional command line options : -8 -V -T "ARTIST=%a" -T "TITLE=%t" -T "ALBUM=%g" -T "DATE=%y" -T "TRACKNUMBER=%n" -T "TOTALTRACKS=%x" -T "GENRE=%m" -T "ALBUM ARTIST=%v" -T "ALBUMARTIST=%v" -T "COMMENT=EAC V1.0 Beta 1, Secure Mode, Test & Copy, AccurateRip
TOC of the extracted CD
Track | Start | Length | Start sector | End sector --------------------------------------------------------- 1 | 0:00.00 | 6:19.71 | 0 | 28495 2 | 6:19.71 | 5:20.48 | 28496 | 52543 3 | 11:40.44 | 5:04.01 | 52544 | 75344 4 | 16:44.45 | 3:32.48 | 75345 | 91292 5 | 20:17.18 | 6:02.49 | 91293 | 118491 6 | 26:19.67 | 4:50.37 | 118492 | 140278 7 | 31:10.29 | 4:03.02 | 140279 | 158505 8 | 35:13.31 | 5:26.40 | 158506 | 182995 9 | 40:39.71 | 5:03.60 | 182996 | 205780 10 | 45:43.56 | 6:04.43 | 205781 | 233123 11 | 51:48.24 | 5:59.11 | 233124 | 260059 12 | 57:47.35 | 3:41.51 | 260060 | 276685
Track 5
Filename H:\Torrents\VA - Kazantip 2-16 (2008) [FLAC]\CD2\05. Spy.der - Passengers.wav
Peak level 98.8 % Extraction speed 2.8 X Track quality 100.0 % Test CRC D6B0A1C3 Copy CRC D6B0A1C3 Track not present in AccurateRip database Copy OK
None of the tracks are present in the AccurateRip database
No errors occurred
End of status report
==== Log checksum 71617514B46DFC7ADFC552D50E4D8FFE99C7156C48C4AECA5BCCA090C85F08C6 ====

cue CD 2

REM GENRE "Tech House, Minimal"REM DATE 2008REM DISCID 8D0E690CREM COMMENT "ExactAudioCopy v1.0b1"PERFORMER "Various"TITLE "Kazantip 2:16 CD2"FILE "01. Midiots - Richards Clicks.wav" WAVE  TRACK 01 AUDIO    TITLE "Richards Clicks"    PERFORMER "Midiots"    INDEX 01 00:00:00FILE "02. Les Specialistes feat. Jucy - Over (Love Song).wav" WAVE  TRACK 02 AUDIO    TITLE "Over (Love Song)"    PERFORMER "Les Specialistes feat. Jucy"    INDEX 01 00:00:00FILE "03. Andrey Loud - Gentle Rain.wav" WAVE  TRACK 03 AUDIO    TITLE "Gentle Rain"    PERFORMER "Andrey Loud"    INDEX 01 00:00:00FILE "04. SCSI-9 - Cologne.wav" WAVE  TRACK 04 AUDIO    TITLE "Cologne"    PERFORMER "SCSI-9"    INDEX 01 00:00:00FILE "05. Spy.der - Passengers.wav" WAVE  TRACK 05 AUDIO    TITLE "Passengers"    PERFORMER "Spy.der"    INDEX 01 00:00:00FILE "06. Bvoice & Khz - Highway Matadors.wav" WAVE  TRACK 06 AUDIO    TITLE "Highway Matadors"    PERFORMER "Bvoice & Khz"    INDEX 01 00:00:00FILE "07. Miusha - Out Of Mind.wav" WAVE  TRACK 07 AUDIO    TITLE "Out Of Mind"    PERFORMER "Miusha"    INDEX 01 00:00:00FILE "08. SCSI-9 - Too Many Gates.wav" WAVE  TRACK 08 AUDIO    TITLE "Too Many Gates"    PERFORMER "SCSI-9"    INDEX 01 00:00:00FILE "09. Valique - Highway To Kyev.wav" WAVE  TRACK 09 AUDIO    TITLE "Highway To Kyev"    PERFORMER "Valique"    INDEX 01 00:00:00FILE "10. Mujuice - Come Home!.wav" WAVE  TRACK 10 AUDIO    TITLE "Come Home!"    PERFORMER "Mujuice"    INDEX 01 00:00:00FILE "11. Moorush - Svit.wav" WAVE  TRACK 11 AUDIO    TITLE "Svit"    PERFORMER "Moorush"    INDEX 01 00:00:00FILE "12. Triangle Sun - When The Rain Comes Falling Down.wav" WAVE  TRACK 12 AUDIO    TITLE "When The Rain Comes Falling Down"    PERFORMER "Triangle Sun"    INDEX 01 00:00:00
Вы не можете начинать темы
Вы не можете отвечать на сообщения
Вы не можете редактировать свои сообщения
Вы не можете удалять свои сообщения
Вы не можете голосовать в опросах
Вы не можете прикреплять файлы к сообщениям
Вы можете скачивать файлы
!ВНИМАНИЕ!

Сайт не предоставляет электронные версии произведений, а занимается лишь коллекционированием и каталогизацией ссылок, присылаемых и публикуемых на форуме нашими читателями. Если вы являетесь правообладателем какого-либо представленного материала и не желаете, чтобы ссылка на него находилась в нашем каталоге, свяжитесь с нами, и мы незамедлительно удалим ее. Файлы для обмена на трекере предоставлены пользователями сайта, и администрация не несет ответственности за их содержание. Просьба не заливать файлы, защищенные авторскими правами, а также файлы нелегального содержания!

Искали программы, игры, дополнения, музыка mp3, аниме, аудио книги, журналы? Добро пожаловать на свободный торрент трекер Torrents, у нас можно скачать бесплатно, без смс и регистрации и прочих ограничений лучшие, отборные сборки программ, игр. Скачать торрентом не составит труда даже не опытному пользователю. Раздачи ежедневно обновляются, только лучшие и качественные раздачи, подробные описания и скриншоты. Огромная коллекция программ для работы со звуком, графикой, дизайном, а так же множество плагинов и инструментов к ним с подробной инструкцией и рекомендациями. Прошивки для навигаторов, карты. Разнообразные игры, для Windows, Linux. В коллекцие есть и старые игры любых жанров, Rpg, Action, Shooter, strategy Множество дополнений, модификаций, сценариев для популярных игр в жанре экш, рпг, гонки, стратегии, логические игры. Множество аддонов и сценариев для Microsoft Flight Simulator Большая коллекция книг, учебников. Если нет возможности купить печатное издание - смело скачивайте цифровую версию книги или, быть может, журнала. Не любите читать - можно загрузить бесплатно аудикнигу. Для веб дизайнеров и программистов так же найдется множество специализированного софта, таких как: редакторы с подсветкой, среды программирования, компоненты, системы управления базами данных, разнообразные скрипты и шаблоны. Не так давно у нас появился материал для автолюбителей и владельцев мото - оригинальные и неоригинальные каталоги запчастей, книги и журналы по ремонту и обслуживанию, видеоуроки, статьи по чип тюнингу, прошивкам. Процедура получения контента элементарная, достаточно просто скачать торрент файл и добавить его в загрузку в вашем торрент клиенте. Если у вас нет специального торрент клиента, вы можете его скачать у нас.