(Techno, Minimal) [CD] VA - DJ Martin Landers - Z15 Республика Каzантип - 2007, FLAC (image+.cue), lossless 

Цитировать
DJ Martin Landers - Z15 Республика Каzантип
Жанр: Techno, Minimal
Носитель: CD
Год издания: 2007
Аудиокодек: FLAC (*.flac)
Тип рипа: image+.cue
Битрейт аудио: lossless
Продолжительность: 73:58
Источник (релизер): свой рип
Наличие сканов в содержимом раздачи: да
Треклист:
01. DJ Martin Landers - Z15 Республика Каzантип (8:14)
02. DJ Martin Landers - Z15 Республика Каzантип (5:27)
03. DJ Martin Landers - Z15 Республика Каzантип (4:19)
04. DJ Martin Landers - Z15 Республика Каzантип (5:28)
05. DJ Martin Landers - Z15 Республика Каzантип (4:54)
06. DJ Martin Landers - Z15 Республика Каzантип (6:01)
07. DJ Martin Landers - Z15 Республика Каzантип (5:30)
08. DJ Martin Landers - Z15 Республика Каzантип (3:09)
09. DJ Martin Landers - Z15 Республика Каzантип (7:04)
10. DJ Martin Landers - Z15 Республика Каzантип (3:45)
11. DJ Martin Landers - Z15 Республика Каzантип (6:42)
12. DJ Martin Landers - Z15 Республика Каzантип (7:40)
13. DJ Martin Landers - Z15 Республика Каzантип (5:46)

Лог создания рипа

Exact Audio Copy V1.3 from 2. September 2016
EAC extraction logfile from 13. October 2018, 10:58
DJ Martin Landers / Z15 Республика Каzантип
Used drive : ASUS DRW-24B5ST Adapter: 6 ID: 0
Read mode : SecureUtilize accurate stream : YesDefeat audio cache : YesMake use of C2 pointers : No
Read offset correction : 6Overread into Lead-In and Lead-Out : NoFill up missing offset samples with silence : YesDelete leading and trailing silent blocks : NoNull samples used in CRC calculations : YesUsed interface : Installed external ASPI interface
Used output format : User Defined EncoderSelected bitrate : 128 kBit/sQuality : HighAdd ID3 tag : NoCommand line compressor : D:\flac-1.3.2-win\win64\flac.exeAdditional command line options : -V -8 -T "Date=%year%" -T "COMMENT=ripped by Andy aka yetiisyou" -T "Genre=%genre%" %source%
TOC of the extracted CD
Track | Start | Length | Start sector | End sector --------------------------------------------------------- 1 | 0:00.00 | 8:13.56 | 0 | 37030 2 | 8:13.56 | 5:26.67 | 37031 | 61547 3 | 13:40.48 | 4:18.54 | 61548 | 80951 4 | 17:59.27 | 5:27.66 | 80952 | 105542 5 | 23:27.18 | 4:54.17 | 105543 | 127609 6 | 28:21.35 | 6:01.07 | 127610 | 154691 7 | 34:22.42 | 5:29.67 | 154692 | 179433 8 | 39:52.34 | 3:08.50 | 179434 | 193583 9 | 43:01.09 | 7:03.50 | 193584 | 225358 10 | 50:04.59 | 3:44.69 | 225359 | 242227 11 | 53:49.53 | 6:42.29 | 242228 | 272406 12 | 60:32.07 | 7:40.02 | 272407 | 306908 13 | 68:12.09 | 5:45.66 | 306909 | 332849
Range status and errors
Selected range
Filename E:\!Ripped by Andy aka yetiisyou\Z15\VA - Z15 Республика Каzантип - DJ Martin landers [2007]\DJ Martin Landers - Z15 Республика Каzантип.wav
Peak level 99.9 % Extraction speed 4.9 X Range quality 100.0 % Test CRC 8FCDBFB1 Copy CRC 8FCDBFB1 Copy OK
No errors occurred
AccurateRip summary
Track 1 not present in databaseTrack 2 not present in databaseTrack 3 not present in databaseTrack 4 not present in databaseTrack 5 not present in databaseTrack 6 not present in databaseTrack 7 not present in databaseTrack 8 not present in databaseTrack 9 not present in databaseTrack 10 not present in databaseTrack 11 not present in databaseTrack 12 not present in databaseTrack 13 not present in database
None of the tracks are present in the AccurateRip database
End of status report
---- CUETools DB Plugin V2.1.6
[CTDB TOCID: WPmK1i7NRrKRK.HexIicV7M_mZ8-] disk not present in databaseSubmit result: WPmK1i7NRrKRK.HexIicV7M_mZ8- has been uploaded
==== Log checksum F2092B0675F948B45A1BBFB8E88359CFC9F9136DE09DE0DF04351C32F9B19FAB ====

Содержание индексной карты (.CUE)

REM DATE 2007REM DISCID A611560DREM COMMENT "ExactAudioCopy v1.3"PERFORMER "DJ Martin Landers"TITLE "Z15 Республика Каzантип"REM COMPOSER ""FILE "DJ Martin Landers - Z15 Республика Каzантип.flac" WAVE  TRACK 01 AUDIO    TITLE "Z15 Республика Каzантип"    PERFORMER "DJ Martin Landers"    REM COMPOSER ""    INDEX 01 00:00:00  TRACK 02 AUDIO    TITLE "Z15 Республика Каzантип"    PERFORMER "DJ Martin Landers"    REM COMPOSER ""    INDEX 01 08:13:56  TRACK 03 AUDIO    TITLE "Z15 Республика Каzантип"    PERFORMER "DJ Martin Landers"    REM COMPOSER ""    INDEX 01 13:40:48  TRACK 04 AUDIO    TITLE "Z15 Республика Каzантип"    PERFORMER "DJ Martin Landers"    REM COMPOSER ""    INDEX 01 17:59:27  TRACK 05 AUDIO    TITLE "Z15 Республика Каzантип"    PERFORMER "DJ Martin Landers"    REM COMPOSER ""    INDEX 01 23:27:18  TRACK 06 AUDIO    TITLE "Z15 Республика Каzантип"    PERFORMER "DJ Martin Landers"    REM COMPOSER ""    INDEX 01 28:21:35  TRACK 07 AUDIO    TITLE "Z15 Республика Каzантип"    PERFORMER "DJ Martin Landers"    REM COMPOSER ""    INDEX 01 34:22:42  TRACK 08 AUDIO    TITLE "Z15 Республика Каzантип"    PERFORMER "DJ Martin Landers"    REM COMPOSER ""    INDEX 01 39:52:34  TRACK 09 AUDIO    TITLE "Z15 Республика Каzантип"    PERFORMER "DJ Martin Landers"    REM COMPOSER ""    INDEX 01 43:01:09  TRACK 10 AUDIO    TITLE "Z15 Республика Каzантип"    PERFORMER "DJ Martin Landers"    REM COMPOSER ""    INDEX 01 50:04:59  TRACK 11 AUDIO    TITLE "Z15 Республика Каzантип"    PERFORMER "DJ Martin Landers"    REM COMPOSER ""    INDEX 01 53:49:53  TRACK 12 AUDIO    TITLE "Z15 Республика Каzантип"    PERFORMER "DJ Martin Landers"    REM COMPOSER ""    INDEX 01 60:32:07  TRACK 13 AUDIO    TITLE "Z15 Республика Каzантип"    PERFORMER "DJ Martin Landers"    REM COMPOSER ""    INDEX 01 68:12:09
Вы не можете начинать темы
Вы не можете отвечать на сообщения
Вы не можете редактировать свои сообщения
Вы не можете удалять свои сообщения
Вы не можете голосовать в опросах
Вы не можете прикреплять файлы к сообщениям
Вы можете скачивать файлы
!ВНИМАНИЕ!

Сайт не предоставляет электронные версии произведений, а занимается лишь коллекционированием и каталогизацией ссылок, присылаемых и публикуемых на форуме нашими читателями. Если вы являетесь правообладателем какого-либо представленного материала и не желаете, чтобы ссылка на него находилась в нашем каталоге, свяжитесь с нами, и мы незамедлительно удалим ее. Файлы для обмена на трекере предоставлены пользователями сайта, и администрация не несет ответственности за их содержание. Просьба не заливать файлы, защищенные авторскими правами, а также файлы нелегального содержания!

Искали программы, игры, дополнения, музыка mp3, аниме, аудио книги, журналы? Добро пожаловать на свободный торрент трекер Torrents, у нас можно скачать бесплатно, без смс и регистрации и прочих ограничений лучшие, отборные сборки программ, игр. Скачать торрентом не составит труда даже не опытному пользователю. Раздачи ежедневно обновляются, только лучшие и качественные раздачи, подробные описания и скриншоты. Огромная коллекция программ для работы со звуком, графикой, дизайном, а так же множество плагинов и инструментов к ним с подробной инструкцией и рекомендациями. Прошивки для навигаторов, карты. Разнообразные игры, для Windows, Linux. В коллекцие есть и старые игры любых жанров, Rpg, Action, Shooter, strategy Множество дополнений, модификаций, сценариев для популярных игр в жанре экш, рпг, гонки, стратегии, логические игры. Множество аддонов и сценариев для Microsoft Flight Simulator Большая коллекция книг, учебников. Если нет возможности купить печатное издание - смело скачивайте цифровую версию книги или, быть может, журнала. Не любите читать - можно загрузить бесплатно аудикнигу. Для веб дизайнеров и программистов так же найдется множество специализированного софта, таких как: редакторы с подсветкой, среды программирования, компоненты, системы управления базами данных, разнообразные скрипты и шаблоны. Не так давно у нас появился материал для автолюбителей и владельцев мото - оригинальные и неоригинальные каталоги запчастей, книги и журналы по ремонту и обслуживанию, видеоуроки, статьи по чип тюнингу, прошивкам. Процедура получения контента элементарная, достаточно просто скачать торрент файл и добавить его в загрузку в вашем торрент клиенте. Если у вас нет специального торрент клиента, вы можете его скачать у нас.