(Techno, Hard Trance) [CD] VA - Каzантип Z003. Acid House - 2003, FLAC (tracks+.cue), lossless 

Цитировать
Каzантип Z003. Acid House
Жанр: Techno, Hard Trance
Носитель: CD
Год издания: 2003
Издатель (лейбл): Республика Z
Номер по каталогу: 05608-03
Аудиокодек: FLAC (*.flac)
Тип рипа: tracks+.cue
Битрейт аудио: lossless
Продолжительность: 01:18:43
Источник (релизер): обмен
Наличие сканов в содержимом раздачи: нет
Треклист:
01. Dj Tiësto Featuring Kirsty Hawkshaw - Urban Train (Cosmic Gate Remix) (6:36)
02. Unknown Artist - Untitled (4:18)
03. Marco V - Godd (4:25)
04. Analog System - Strange Morning In December (5:05)
05. Unknown Artist - Untitled (4:40)
06. Flash - Givin' It All (Alpha Mix) (6:04)
07. Unknown Artist - Untitled (4:46)
08. Unknown Artist - Untitled (5:39)
09. Unknown Artist - Untitled (5:07)
10. Unknown Artist - Untitled (5:31)
11. Unknown Artist - Untitled (4:05)
12. Warp Brothers - We Will Survive (6:38)
13. Norman Bass - How U Like Bass? (6:02)
14. Paul Pritchard - The Devil Is Dj (4:33)
15. Modem - Contact (We Gotta Connect) (Warp Brothers Remix) (5:14)

Лог создания рипа

Exact Audio Copy V1.1 from 23. June 2015
EAC extraction logfile from 24. October 2015, 10:55
Various Artists / Каzантип Z003. Acid House
Used drive : PLEXTOR DVDR PX-755A Adapter: 1 ID: 3
Read mode : SecureUtilize accurate stream : YesDefeat audio cache : YesMake use of C2 pointers : No
Read offset correction : 30Overread into Lead-In and Lead-Out : YesFill up missing offset samples with silence : YesDelete leading and trailing silent blocks : NoNull samples used in CRC calculations : YesUsed interface : Native Win32 interface for Win NT & 2000Gap handling : Appended to previous track
Used output format : User Defined EncoderSelected bitrate : 896 kBit/sQuality : HighAdd ID3 tag : NoCommand line compressor : C:\Program Files (x86)\Exact Audio Copy\Flac\flac.exeAdditional command line options : -8 -V -T "ARTIST=%artist%" -T "TITLE=%title%" -T "ALBUM=%albumtitle%" -T "DATE=%year%" -T "TRACKNUMBER=%tracknr%" -T "GENRE=%genre%" -T "PERFORMER=%albuminterpret%" -T "COMPOSER=%composer%" %haslyrics%--tag-from-file=LYRICS="%lyricsfile%"%haslyrics% -T "ALBUMARTIST=%albumartist%" -T "DISCNUMBER=%cdnumber%" -T "TOTALDISCS=%totalcds%" -T "TOTALTRACKS=%numtracks%" -T "COMMENT=%comment%" %source% -o %dest%
TOC of the extracted CD
Track | Start | Length | Start sector | End sector --------------------------------------------------------- 1 | 0:00.00 | 6:36.30 | 0 | 29729 2 | 6:36.30 | 4:17.47 | 29730 | 49051 3 | 10:54.02 | 4:25.12 | 49052 | 68938 4 | 15:19.14 | 5:05.21 | 68939 | 91834 5 | 20:24.35 | 4:40.19 | 91835 | 112853 6 | 25:04.54 | 6:03.38 | 112854 | 140116 7 | 31:08.17 | 4:46.08 | 140117 | 161574 8 | 35:54.25 | 5:39.18 | 161575 | 187017 9 | 41:33.43 | 5:06.58 | 187018 | 210025 10 | 46:40.26 | 5:31.06 | 210026 | 234856 11 | 52:11.32 | 4:04.38 | 234857 | 253194 12 | 56:15.70 | 6:37.65 | 253195 | 283034 13 | 62:53.60 | 6:01.69 | 283035 | 310178 14 | 68:55.54 | 4:33.17 | 310179 | 330670 15 | 73:28.71 | 5:13.61 | 330671 | 354206
Track 1
Filename T:\MUSIC\VA - Каzантип Z003. Acid House (2003) [CD-FLAC]\1-01. Unknown Artist - Untitled.wav
Pre-gap length 0:00:02.00
Peak level 100.0 % Extraction speed 1.8 X Track quality 99.9 % Test CRC B8A9215D Copy CRC B8A9215D Track not present in AccurateRip database Copy OK
Track 2
Filename T:\MUSIC\VA - Каzантип Z003. Acid House (2003) [CD-FLAC]\1-02. Unknown Artist - Untitled.wav
Peak level 100.0 % Extraction speed 1.6 X Track quality 99.9 % Test CRC DE18FCB1 Copy CRC DE18FCB1 Track not present in AccurateRip database Copy OK
Track 3
Filename T:\MUSIC\VA - Каzантип Z003. Acid House (2003) [CD-FLAC]\1-03. Unknown Artist - Untitled.wav
Peak level 100.0 % Extraction speed 2.2 X Track quality 100.0 % Test CRC 804638C2 Copy CRC 804638C2 Track not present in AccurateRip database Copy OK
Track 4
Filename T:\MUSIC\VA - Каzантип Z003. Acid House (2003) [CD-FLAC]\1-04. Unknown Artist - Untitled.wav
Peak level 100.0 % Extraction speed 2.2 X Track quality 100.0 % Test CRC B2E2E312 Copy CRC B2E2E312 Track not present in AccurateRip database Copy OK
Track 5
Filename T:\MUSIC\VA - Каzантип Z003. Acid House (2003) [CD-FLAC]\1-05. Unknown Artist - Untitled.wav
Peak level 100.0 % Extraction speed 2.2 X Track quality 100.0 % Test CRC 86212D68 Copy CRC 86212D68 Track not present in AccurateRip database Copy OK
Track 6
Filename T:\MUSIC\VA - Каzантип Z003. Acid House (2003) [CD-FLAC]\1-06. Unknown Artist - Untitled.wav
Peak level 100.0 % Extraction speed 1.7 X Track quality 99.9 % Test CRC 75EE4FA5 Copy CRC 75EE4FA5 Track not present in AccurateRip database Copy OK
Track 7
Filename T:\MUSIC\VA - Каzантип Z003. Acid House (2003) [CD-FLAC]\1-07. Unknown Artist - Untitled.wav
Peak level 100.0 % Extraction speed 2.2 X Track quality 100.0 % Test CRC DFC2B9CA Copy CRC DFC2B9CA Track not present in AccurateRip database Copy OK
Track 8
Filename T:\MUSIC\VA - Каzантип Z003. Acid House (2003) [CD-FLAC]\1-08. Unknown Artist - Untitled.wav
Peak level 100.0 % Extraction speed 2.2 X Track quality 100.0 % Test CRC FE94028E Copy CRC FE94028E Track not present in AccurateRip database Copy OK
Track 9
Filename T:\MUSIC\VA - Каzантип Z003. Acid House (2003) [CD-FLAC]\1-09. Unknown Artist - Untitled.wav
Peak level 100.0 % Extraction speed 1.6 X Track quality 99.9 % Test CRC 870BB8CE Copy CRC 870BB8CE Track not present in AccurateRip database Copy OK
Track 10
Filename T:\MUSIC\VA - Каzантип Z003. Acid House (2003) [CD-FLAC]\1-10. Unknown Artist - Untitled.wav
Peak level 100.0 % Extraction speed 2.2 X Track quality 100.0 % Test CRC B68EE3E1 Copy CRC B68EE3E1 Track not present in AccurateRip database Copy OK
Track 11
Filename T:\MUSIC\VA - Каzантип Z003. Acid House (2003) [CD-FLAC]\1-11. Unknown Artist - Untitled.wav
Peak level 100.0 % Extraction speed 2.2 X Track quality 100.0 % Test CRC 29B19EA9 Copy CRC 29B19EA9 Track not present in AccurateRip database Copy OK
Track 12
Filename T:\MUSIC\VA - Каzантип Z003. Acid House (2003) [CD-FLAC]\1-12. Unknown Artist - Untitled.wav
Peak level 100.0 % Extraction speed 2.3 X Track quality 100.0 % Test CRC B9129ACA Copy CRC B9129ACA Track not present in AccurateRip database Copy OK
Track 13
Filename T:\MUSIC\VA - Каzантип Z003. Acid House (2003) [CD-FLAC]\1-13. Unknown Artist - Untitled.wav
Peak level 100.0 % Extraction speed 2.2 X Track quality 100.0 % Test CRC 70A5A458 Copy CRC 70A5A458 Track not present in AccurateRip database Copy OK
Track 14
Filename T:\MUSIC\VA - Каzантип Z003. Acid House (2003) [CD-FLAC]\1-14. Unknown Artist - Untitled.wav
Peak level 100.0 % Extraction speed 1.6 X Track quality 99.9 % Test CRC E8447103 Copy CRC E8447103 Track not present in AccurateRip database Copy OK
Track 15
Filename T:\MUSIC\VA - Каzантип Z003. Acid House (2003) [CD-FLAC]\1-15. Unknown Artist - Untitled.wav
Peak level 100.0 % Extraction speed 1.7 X Track quality 100.0 % Test CRC D741E945 Copy CRC D741E945 Track not present in AccurateRip database Copy OK
None of the tracks are present in the AccurateRip database
No errors occurred
End of status report
---- CUETools DB Plugin V2.1.6
[CTDB TOCID: 6gI7H5Jc4YLtM5.PUd_Ss7jwUGQ-] disk not present in databaseSubmit result: 6gI7H5Jc4YLtM5.PUd_Ss7jwUGQ- has been uploaded
==== Log checksum D957C54544462CEFB1F5DC2BB69169EFF2354200C0F0AD780783364ACEB9CD72 ====

Содержание индексной карты (.CUE)

REM GENRE "Techno, Trance"REM DATE 2003REM DISCID D412720FREM COMMENT "ExactAudioCopy v1.1"PERFORMER "Various Artists"TITLE "Каzантип Z003. Acid House"FILE "1-01. Unknown Artist - Untitled.wav" WAVE  TRACK 01 AUDIO    TITLE "Untitled"    PERFORMER "Unknown Artist"    INDEX 01 00:00:00FILE "1-02. Unknown Artist - Untitled.wav" WAVE  TRACK 02 AUDIO    TITLE "Untitled"    PERFORMER "Unknown Artist"    INDEX 01 00:00:00FILE "1-03. Unknown Artist - Untitled.wav" WAVE  TRACK 03 AUDIO    TITLE "Untitled"    PERFORMER "Unknown Artist"    INDEX 01 00:00:00FILE "1-04. Unknown Artist - Untitled.wav" WAVE  TRACK 04 AUDIO    TITLE "Untitled"    PERFORMER "Unknown Artist"    INDEX 01 00:00:00FILE "1-05. Unknown Artist - Untitled.wav" WAVE  TRACK 05 AUDIO    TITLE "Untitled"    PERFORMER "Unknown Artist"    INDEX 01 00:00:00FILE "1-06. Unknown Artist - Untitled.wav" WAVE  TRACK 06 AUDIO    TITLE "Untitled"    PERFORMER "Unknown Artist"    INDEX 01 00:00:00FILE "1-07. Unknown Artist - Untitled.wav" WAVE  TRACK 07 AUDIO    TITLE "Untitled"    PERFORMER "Unknown Artist"    INDEX 01 00:00:00FILE "1-08. Unknown Artist - Untitled.wav" WAVE  TRACK 08 AUDIO    TITLE "Untitled"    PERFORMER "Unknown Artist"    INDEX 01 00:00:00FILE "1-09. Unknown Artist - Untitled.wav" WAVE  TRACK 09 AUDIO    TITLE "Untitled"    PERFORMER "Unknown Artist"    INDEX 01 00:00:00FILE "1-10. Unknown Artist - Untitled.wav" WAVE  TRACK 10 AUDIO    TITLE "Untitled"    PERFORMER "Unknown Artist"    INDEX 01 00:00:00FILE "1-11. Unknown Artist - Untitled.wav" WAVE  TRACK 11 AUDIO    TITLE "Untitled"    PERFORMER "Unknown Artist"    INDEX 01 00:00:00FILE "1-12. Unknown Artist - Untitled.wav" WAVE  TRACK 12 AUDIO    TITLE "Untitled"    PERFORMER "Unknown Artist"    INDEX 01 00:00:00FILE "1-13. Unknown Artist - Untitled.wav" WAVE  TRACK 13 AUDIO    TITLE "Untitled"    PERFORMER "Unknown Artist"    INDEX 01 00:00:00FILE "1-14. Unknown Artist - Untitled.wav" WAVE  TRACK 14 AUDIO    TITLE "Untitled"    PERFORMER "Unknown Artist"    INDEX 01 00:00:00FILE "1-15. Unknown Artist - Untitled.wav" WAVE  TRACK 15 AUDIO    TITLE "Untitled"    PERFORMER "Unknown Artist"    INDEX 01 00:00:00
Вы не можете начинать темы
Вы не можете отвечать на сообщения
Вы не можете редактировать свои сообщения
Вы не можете удалять свои сообщения
Вы не можете голосовать в опросах
Вы не можете прикреплять файлы к сообщениям
Вы можете скачивать файлы
!ВНИМАНИЕ!

Сайт не предоставляет электронные версии произведений, а занимается лишь коллекционированием и каталогизацией ссылок, присылаемых и публикуемых на форуме нашими читателями. Если вы являетесь правообладателем какого-либо представленного материала и не желаете, чтобы ссылка на него находилась в нашем каталоге, свяжитесь с нами, и мы незамедлительно удалим ее. Файлы для обмена на трекере предоставлены пользователями сайта, и администрация не несет ответственности за их содержание. Просьба не заливать файлы, защищенные авторскими правами, а также файлы нелегального содержания!

Искали программы, игры, дополнения, музыка mp3, аниме, аудио книги, журналы? Добро пожаловать на свободный торрент трекер Torrents, у нас можно скачать бесплатно, без смс и регистрации и прочих ограничений лучшие, отборные сборки программ, игр. Скачать торрентом не составит труда даже не опытному пользователю. Раздачи ежедневно обновляются, только лучшие и качественные раздачи, подробные описания и скриншоты. Огромная коллекция программ для работы со звуком, графикой, дизайном, а так же множество плагинов и инструментов к ним с подробной инструкцией и рекомендациями. Прошивки для навигаторов, карты. Разнообразные игры, для Windows, Linux. В коллекцие есть и старые игры любых жанров, Rpg, Action, Shooter, strategy Множество дополнений, модификаций, сценариев для популярных игр в жанре экш, рпг, гонки, стратегии, логические игры. Множество аддонов и сценариев для Microsoft Flight Simulator Большая коллекция книг, учебников. Если нет возможности купить печатное издание - смело скачивайте цифровую версию книги или, быть может, журнала. Не любите читать - можно загрузить бесплатно аудикнигу. Для веб дизайнеров и программистов так же найдется множество специализированного софта, таких как: редакторы с подсветкой, среды программирования, компоненты, системы управления базами данных, разнообразные скрипты и шаблоны. Не так давно у нас появился материал для автолюбителей и владельцев мото - оригинальные и неоригинальные каталоги запчастей, книги и журналы по ремонту и обслуживанию, видеоуроки, статьи по чип тюнингу, прошивкам. Процедура получения контента элементарная, достаточно просто скачать торрент файл и добавить его в загрузку в вашем торрент клиенте. Если у вас нет специального торрент клиента, вы можете его скачать у нас.