(Breakbeat) [CD] SL2 - Singles Collection - 1991 - 1992, FLAC (image+.cue), lossless 

Цитировать
SL2 / Singles Collection: 4 CD
[img=right] Жанр: Breakbeat, Techno
Носитель: CD
Год издания: 1991 - 1992
Аудиокодек: FLAC (*.flac)
Тип рипа: image+.cue
Битрейт аудио: lossless
Источник (релизер): Собственный рип
Наличие сканов в содержимом раздачи: нет

1991 - DJ's Take Control

Носитель: CD
Страна-производитель диска: Великобритания
Год издания: 1991
Издатель (лейбл): XL Recordings
Номер по каталогу: XLS-24CD
Продолжительность: 0:18:02
Треклист:
1. DJ's Take Control (Edit)3:49
2. Way In My Brain 4:20
3. The Noise (The Remix)4:40
4. DJ's Take Control 5:02

Лог создания рипа

Exact Audio Copy V1.0 beta 3 from 29. August 2011
Отчёт EAC об извлечении, выполненном 20. октября 2018, 19:43
Sl2 / DJ's Take Control
Дисковод: Optiarc DVD RW AD-7200S Adapter: 3 ID: 0
Режим чтения : ДостоверностьИспользование точного потока : ДаОтключение кэша аудио : ДаИспользование указателей C2 : Нет
Коррекция смещения при чтении : 48Способность читать области Lead-in и Lead-out : НетЗаполнение пропущенных сэмплов тишиной : ДаУдаление блоков с тишиной в начале и конце : НетПри вычислениях CRC использовались нулевые сэмплы : ДаИнтерфейс : Установленный внешний ASPI-интерфейс
Выходной формат : Пользовательский кодировщикВыбранный битрейт : 1024 kBit/sКачество : ВысокийДобавление ID3-тега : НетУтилита сжатия : C:\Program Files (x86)\Exact Audio Copy\FLAC\FLAC.EXEДополнительные параметры : -V -8 -T "Date=%year%" -T "Genre=%genre%" %source%
TOC извлечённого CD
Трек | Старт | Длительность | Начальный сектор | Конечный сектор --------------------------------------------------------------------- 1 | 0:00.00 | 3:50.65 | 0 | 17314 2 | 3:50.65 | 4:21.05 | 17315 | 36894 3 | 8:11.70 | 4:44.57 | 36895 | 58251 4 | 12:56.52 | 5:05.43 | 58252 | 81169
Характеристики диапазона извлечения и сообщения об ошибках
Выбранный диапазон
Имя файла C:\Users\ASUS\Music\Audio\Sl2 - DJ's Take Control.wav
Пиковый уровень 100.0 % Скорость извлечения 3.3 X Качество диапазона 100.0 % CRC теста 1B786AB1 CRC копии 1B786AB1 Копирование... OK
Ошибок не произошло
AccurateRip: сводка
Трек 1 точное извлечение (доверие 4) [D8B93CFA]Трек 2 точное извлечение (доверие 4) [366BA886]Трек 3 точное извлечение (доверие 4) [919981BD]Трек 4 точное извлечение (доверие 4) [A732DECE]
Все треки извлечены точно
Конец отчёта
==== Контрольная сумма отчёта AB365709E18020DF67C0E87115C50C490F0123D52B28D4E950CBB8EA118E4B52 ====

Содержание индексной карты (.CUE)

REM DATE 1991REM DISCID 2F043A04REM COMMENT "ExactAudioCopy v1.0b3"PERFORMER "Sl2"TITLE "DJ's Take Control"FILE "Sl2 - DJ's Take Control.flac" WAVE  TRACK 01 AUDIO    TITLE "DJ's Take Control (Edit)"    PERFORMER "Sl2"    INDEX 01 00:00:00  TRACK 02 AUDIO    TITLE "Way In My Brain"    PERFORMER "Sl2"    INDEX 01 03:50:65  TRACK 03 AUDIO    TITLE "The Noise (The Remix)"    PERFORMER "Sl2"    INDEX 01 08:11:70  TRACK 04 AUDIO    TITLE "DJ's Take Control"    PERFORMER "Sl2"    INDEX 01 12:56:52

1992 - Way In My Brain (Remix)

Носитель: CD
Страна-производитель диска: Великобритания
Год издания: 1992
Издатель (лейбл): XL Recordings
Номер по каталогу: XLS-36CD
Продолжительность: 0:17:57
Треклист
1. Way In My Brain (Remix Edit) 3:49
2. Drumbeats 4:42
3. Aftershock 4:36
4. S.L.Ectro 4:36

Лог создания рипа

Exact Audio Copy V1.0 beta 3 from 29. August 2011
Отчёт EAC об извлечении, выполненном 20. октября 2018, 20:46
Sl2 / Way In My Brain (Remix) / Drumbeats
Дисковод: Optiarc DVD RW AD-7200S Adapter: 3 ID: 0
Режим чтения : ДостоверностьИспользование точного потока : ДаОтключение кэша аудио : ДаИспользование указателей C2 : Нет
Коррекция смещения при чтении : 48Способность читать области Lead-in и Lead-out : НетЗаполнение пропущенных сэмплов тишиной : ДаУдаление блоков с тишиной в начале и конце : НетПри вычислениях CRC использовались нулевые сэмплы : ДаИнтерфейс : Установленный внешний ASPI-интерфейс
Выходной формат : Пользовательский кодировщикВыбранный битрейт : 1024 kBit/sКачество : ВысокийДобавление ID3-тега : НетУтилита сжатия : C:\Program Files (x86)\Exact Audio Copy\FLAC\FLAC.EXEДополнительные параметры : -V -8 -T "Date=%year%" -T "Genre=%genre%" %source%
TOC извлечённого CD
Трек | Старт | Длительность | Начальный сектор | Конечный сектор --------------------------------------------------------------------- 1 | 0:00.00 | 3:54.73 | 0 | 17622 2 | 3:54.73 | 4:44.67 | 17623 | 38989 3 | 8:39.65 | 4:39.65 | 38990 | 59979 4 | 13:19.55 | 4:37.10 | 59980 | 80764
Характеристики диапазона извлечения и сообщения об ошибках
Выбранный диапазон
Имя файла C:\Users\ASUS\Music\Audio\Sl2 - Way In My Brain (Remix) , Drumbeats.wav
Пиковый уровень 98.2 % Скорость извлечения 3.2 X Качество диапазона 100.0 % CRC теста 794456BC CRC копии 794456BC Копирование... OK
Ошибок не произошло
AccurateRip: сводка
Трек 1 точное извлечение (доверие 3) [7ED7C383]Трек 2 точное извлечение (доверие 3) [D8DAB86E]Трек 3 точное извлечение (доверие 3) [C5BBCB82]Трек 4 точное извлечение (доверие 3) [E353F4E2]
Все треки извлечены точно
Конец отчёта
==== Контрольная сумма отчёта 3243F779A3A9A4F33A58E129000E84618B7AFD028D9F04953BE74ECD57098D0B ====

Содержание индексной карты (.CUE)

REM DATE 1992REM DISCID 1E043404REM COMMENT "ExactAudioCopy v1.0b3"PERFORMER "Sl2"TITLE "Way In My Brain (Remix) / Drumbeats"FILE "Sl2 - Way In My Brain (Remix) , Drumbeats.flac" WAVE  TRACK 01 AUDIO    TITLE "Way In My Brain (remix edit)"    PERFORMER "Sl2"    INDEX 01 00:00:00  TRACK 02 AUDIO    TITLE "Drumbeats"    PERFORMER "Sl2"    INDEX 01 03:54:73  TRACK 03 AUDIO    TITLE "Aftershock"    PERFORMER "Sl2"    INDEX 01 08:39:65  TRACK 04 AUDIO    TITLE "S.L.Ectro"    PERFORMER "Sl2"    INDEX 01 13:19:55

1992 - On A Ragga Tip

Носитель: CD
Страна-производитель диска: Великобритания
Год издания: 1992
Издатель (лейбл): XL Recordings
Номер по каталогу: XLS-29CD
Продолжительность: 0:18:03
Треклист
1. On A Ragga Tip (Edit) 3:45
2. Pleasure (Original Mix) 4:05
3. Changing Trax (Original Mix) 5:00
4. On A Ragga Tip (Original Mix) 5:11

Лог создания рипа

Exact Audio Copy V1.0 beta 3 from 29. August 2011
Отчёт EAC об извлечении, выполненном 20. октября 2018, 20:17
Sl2 / On A Ragga Tip
Дисковод: Optiarc DVD RW AD-7200S Adapter: 3 ID: 0
Режим чтения : ДостоверностьИспользование точного потока : ДаОтключение кэша аудио : ДаИспользование указателей C2 : Нет
Коррекция смещения при чтении : 48Способность читать области Lead-in и Lead-out : НетЗаполнение пропущенных сэмплов тишиной : ДаУдаление блоков с тишиной в начале и конце : НетПри вычислениях CRC использовались нулевые сэмплы : ДаИнтерфейс : Установленный внешний ASPI-интерфейс
Выходной формат : Пользовательский кодировщикВыбранный битрейт : 1024 kBit/sКачество : ВысокийДобавление ID3-тега : НетУтилита сжатия : C:\Program Files (x86)\Exact Audio Copy\FLAC\FLAC.EXEДополнительные параметры : -V -8 -T "Date=%year%" -T "Genre=%genre%" %source%
TOC извлечённого CD
Трек | Старт | Длительность | Начальный сектор | Конечный сектор --------------------------------------------------------------------- 1 | 0:00.00 | 3:46.35 | 0 | 16984 2 | 3:46.35 | 4:07.25 | 16985 | 35534 3 | 7:53.60 | 4:59.50 | 35535 | 58009 4 | 12:53.35 | 5:09.27 | 58010 | 81211
Характеристики диапазона извлечения и сообщения об ошибках
Выбранный диапазон
Имя файла C:\Users\ASUS\Music\Audio\Sl2 - On A Ragga Tip.wav
Пиковый уровень 99.7 % Скорость извлечения 3.3 X Качество диапазона 100.0 % CRC теста 93CCA70B CRC копии 93CCA70B Копирование... OK
Ошибок не произошло
AccurateRip: сводка
Трек 1 точное извлечение (доверие 7) [942F2183]Трек 2 точное извлечение (доверие 7) [DC4236B4]Трек 3 точное извлечение (доверие 7) [95840DB3]Трек 4 точное извлечение (доверие 7) [F519DE21]
Все треки извлечены точно
Конец отчёта
==== Контрольная сумма отчёта B54DF7E8C0D67880E108DB043799BC62756AFB6A7C4509E48BBCA6695F240801 ====

Содержание индексной карты (.CUE)

REM DATE 1992REM DISCID 31043A04REM COMMENT "ExactAudioCopy v1.0b3"PERFORMER "Sl2"TITLE "On A Ragga Tip"FILE "Sl2 - On A Ragga Tip.flac" WAVE  TRACK 01 AUDIO    TITLE "On A Ragga Tip (Edit)"    PERFORMER "Sl2"    INDEX 01 00:00:00  TRACK 02 AUDIO    TITLE "Pleasure (Original Mix)"    PERFORMER "Sl2"    INDEX 01 03:46:35  TRACK 03 AUDIO    TITLE "Changing Trax (Original Mix)"    PERFORMER "Sl2"    INDEX 01 07:53:60  TRACK 04 AUDIO    TITLE "On A Ragga Tip (Original Mix)"    PERFORMER "Sl2"    INDEX 01 12:53:35

1997 - On A Ragga Tip 97"

Носитель: CD
Страна-производитель диска: Великобритания
Год издания: 1991
Издатель (лейбл): XL Recordings
Номер по каталогу: XLSR 29 CD
Продолжительность: 0:29:18
Треклист
1. On A Ragga Tip 97 (Goodfellos Radio Edit) 03:43
2. On A Ragga Tip 97 (Slipmatt Edit) 03:30
3. On A Ragga Tip 97 (Force & Styles Remix) 04:41
4. On A Ragga Tip 97 (Original Mix) 05:09
5. On A Ragga Tip 97 (Slipmatt Remix) 04:37
6. On A Ragga Tip 97 (Goodfellos Remix) 07:37

Лог создания рипа

Exact Audio Copy V1.0 beta 3 from 29. August 2011Отчёт EAC об извлечении, выполненном 20. октября 2018, 21:45
Sl2 / On A Ragga Tip 97
Дисковод: Optiarc DVD RW AD-7200S Adapter: 3 ID: 0
Режим чтения : ДостоверностьИспользование точного потока : ДаОтключение кэша аудио : ДаИспользование указателей C2 : Нет
Коррекция смещения при чтении : 48Способность читать области Lead-in и Lead-out : НетЗаполнение пропущенных сэмплов тишиной : ДаУдаление блоков с тишиной в начале и конце : НетПри вычислениях CRC использовались нулевые сэмплы : ДаИнтерфейс : Установленный внешний ASPI-интерфейс
Выходной формат : Пользовательский кодировщикВыбранный битрейт : 1024 kBit/sКачество : ВысокийДобавление ID3-тега : НетУтилита сжатия : C:\Program Files (x86)\Exact Audio Copy\FLAC\FLAC.EXEДополнительные параметры : -V -8 -T "Date=%year%" -T "Genre=%genre%" %source%
TOC извлечённого CD
Трек | Старт | Длительность | Начальный сектор | Конечный сектор --------------------------------------------------------------------- 1 | 0:00.00 | 3:43.35 | 0 | 16759 2 | 3:43.35 | 3:29.70 | 16760 | 32504 3 | 7:13.30 | 4:41.00 | 32505 | 53579 4 | 11:54.30 | 5:09.32 | 53580 | 76786 5 | 17:03.62 | 4:37.10 | 76787 | 97571 6 | 21:40.72 | 7:37.38 | 97572 | 131884
Характеристики диапазона извлечения и сообщения об ошибках
Выбранный диапазон
Имя файла C:\Users\ASUS\Music\Audio\Sl2 - On A Ragga Tip 97.wav
Пиковый уровень 100.0 % Скорость извлечения 3.6 X Качество диапазона 100.0 % CRC теста A7183CAB CRC копии A7183CAB Копирование... OK
Ошибок не произошло
AccurateRip: сводка
Трек 1 точное извлечение (доверие 31) [DCB6787A]Трек 2 точное извлечение (доверие 25) [183AC8F9]Трек 3 точное извлечение (доверие 32) [CC3D3D25]Трек 4 точное извлечение (доверие 29) [0DF8D000]Трек 5 точное извлечение (доверие 26) [C25BD961]Трек 6 точное извлечение (доверие 27) [294CF2F2]
Все треки извлечены точно
Конец отчёта
==== Контрольная сумма отчёта C4FF59E99A03C6FF35AD222073DEC13EBB5DE7DB739DAFCB3BBE4DE35CF5C1F4 ====

Содержание индексной карты (.CUE)

REM DATE 1997REM DISCID 3306DE06REM COMMENT "ExactAudioCopy v1.0b3"PERFORMER "Sl2"TITLE "On A Ragga Tip 97"FILE "Sl2 - On A Ragga Tip 97.flac" WAVE  TRACK 01 AUDIO    TITLE "On A Ragga Tip 97 (Goodfellos Radio Edit)"    PERFORMER "Sl2"    INDEX 01 00:00:00  TRACK 02 AUDIO    TITLE "On A Ragga Tip 97 (Slipmatt Edit)"    PERFORMER "Sl2"    INDEX 01 03:43:35  TRACK 03 AUDIO    TITLE "On A Ragga Tip 97 (Force & Styles Remix)"    PERFORMER "Sl2"    INDEX 01 07:13:30  TRACK 04 AUDIO    TITLE "On A Ragga Tip 97 (Original Mix)"    PERFORMER "Sl2"    INDEX 01 11:54:30  TRACK 05 AUDIO    TITLE "On A Ragga Tip 97 (Slipmatt Remix)"    PERFORMER "Sl2"    INDEX 01 17:03:62  TRACK 06 AUDIO    TITLE "On A Ragga Tip 97 (Goodfellos Remix)"    PERFORMER "Sl2"    INDEX 01 21:40:72

Об исполнителе (группе)

SL2 – английская брейкбит группа , активная в начале 1990-х годов. Они также записывались под названиями Slipmatt & Lime и T.H.C. Название группы SL2 исходило от инициалов основателей: Slipmatt (S) и Lime (L), и того факта, что они были дуэтом, следовательно, «SL2».
Вы не можете начинать темы
Вы не можете отвечать на сообщения
Вы не можете редактировать свои сообщения
Вы не можете удалять свои сообщения
Вы не можете голосовать в опросах
Вы не можете прикреплять файлы к сообщениям
Вы можете скачивать файлы
!ВНИМАНИЕ!

Сайт не предоставляет электронные версии произведений, а занимается лишь коллекционированием и каталогизацией ссылок, присылаемых и публикуемых на форуме нашими читателями. Если вы являетесь правообладателем какого-либо представленного материала и не желаете, чтобы ссылка на него находилась в нашем каталоге, свяжитесь с нами, и мы незамедлительно удалим ее. Файлы для обмена на трекере предоставлены пользователями сайта, и администрация не несет ответственности за их содержание. Просьба не заливать файлы, защищенные авторскими правами, а также файлы нелегального содержания!

Искали программы, игры, дополнения, музыка mp3, аниме, аудио книги, журналы? Добро пожаловать на свободный торрент трекер Torrents, у нас можно скачать бесплатно, без смс и регистрации и прочих ограничений лучшие, отборные сборки программ, игр. Скачать торрентом не составит труда даже не опытному пользователю. Раздачи ежедневно обновляются, только лучшие и качественные раздачи, подробные описания и скриншоты. Огромная коллекция программ для работы со звуком, графикой, дизайном, а так же множество плагинов и инструментов к ним с подробной инструкцией и рекомендациями. Прошивки для навигаторов, карты. Разнообразные игры, для Windows, Linux. В коллекцие есть и старые игры любых жанров, Rpg, Action, Shooter, strategy Множество дополнений, модификаций, сценариев для популярных игр в жанре экш, рпг, гонки, стратегии, логические игры. Множество аддонов и сценариев для Microsoft Flight Simulator Большая коллекция книг, учебников. Если нет возможности купить печатное издание - смело скачивайте цифровую версию книги или, быть может, журнала. Не любите читать - можно загрузить бесплатно аудикнигу. Для веб дизайнеров и программистов так же найдется множество специализированного софта, таких как: редакторы с подсветкой, среды программирования, компоненты, системы управления базами данных, разнообразные скрипты и шаблоны. Не так давно у нас появился материал для автолюбителей и владельцев мото - оригинальные и неоригинальные каталоги запчастей, книги и журналы по ремонту и обслуживанию, видеоуроки, статьи по чип тюнингу, прошивкам. Процедура получения контента элементарная, достаточно просто скачать торрент файл и добавить его в загрузку в вашем торрент клиенте. Если у вас нет специального торрент клиента, вы можете его скачать у нас.