(Techno, Tech House, Electronic) [3хCD] VA - Fabric 100: Craig Richards, Terry Francis & Keith Reilly [Fabric |FABRIC 199] - 2018, FLAC (tracks+.cue), lossless: 

Цитировать
VA / Fabric 100: Craig Richards, Terry Francis & Keith Reilly
Жанр: Techno, Tech House, Electronic
Носитель: CD
Страна-производитель диска (релиза): EU
Год издания: 2018
Издатель (лейбл): Fabric
Номер по каталогу: FABRIC 199
Аудиокодек: FLAC (*.flac)
Тип рипа: tracks+.cue
Битрейт аудио: lossless
Продолжительность: 03:47:02
Источник (релизер): Рип друга juno.co.uk
Наличие сканов в содержимом раздачи: нет

CD1 mixed By Craig Richards:

-

01. Monolake - Nmos (2:55)
02. Alphacom - Journal Square (3:10)
03. Solar X Brother Nebula - S.I.S. (Savile's Jetset Radio Remix) (3:35)
04. Setaoc Mass - Flying Buttress (2:56)
05. D. Ball - Transition (3:25)
06. Larry McCormick - Ride Low (3:44)
07. Simulant - New Machines (3:22)
08. The Woodleigh Research Facility - The Question Oak (2:56)
09. Rutherford - Pseudo Judo (4:15)
10. Reedale Rise - Lucid Flow (5:14)
11. Craig Richards - My Friend Is Losing His Mind (3:24)
12. Fred und Luna - Monotonikum (5:19)
13. Nancy Noise - Azizi’s Dance (Andrew Weatherall Remix 1) (4:57)
14. Reade Truth - Where Has Love Gone (3:04)
15. Simon Haydo - Obey? (2:49)
16. DMX Krew - Bush Baby Bug Eyes (3:30)
17. Detromental - Rewind (3:04)
18. Mike Ash - The Fizz (2:15)
19. Zy Clone - Vectorvision vs Convextion (3:00)
20. Suck Seed - Orgue Electronique (4:50)

CD2 mixed By Terry Francis:

-

01. Patrick Di Stefano & Luca Doobie - Get Through (Inxec Remix) (3:06)
02. Jamie Fairley - Round ‘n’ Round (4:23)
03. Jose Vizcaino - Vicious Vision (3:37)
04. Joeski - Cross Over (feat. Jesante) (4:54)
05. Audiojack - Turya (5:26)
06. Gel Abril - Carpet Sneak (3:05)
07. Mauri Fly - Red Tribal ( Silvano Del Gado Remix) (1:17)
08. Blue Wig - No Ignorance (Part 1) (6:10)
09. Pure Science - The Way We Use To (2:58)
10. Argy - Love Dose (3:14)
11. Kevin Yost - Dancer Dancer (2:04)
12. Andre Salmon - Where Is The Salmon (4:24)
13. Francesco Robustelli - After Midnight (3:21)
14. Jaded & James Petrou - Toni’s Pain (INXEC's Morphine mashup) (4:54)
15. Terry Francis - Wipeout (3:27)
16. Tiefschwartz - Oberton (0:52)
17. Terry Francis - Emotional Blackmail (6:35)
18. Funtopia feat. Jimi Polo - Do You Wanna Know (Club Mix) (5:35)
19. Creep Show - Safe and Sound (9:03)

CD3 mixed By Keith Reilly:

-

01. Vondelpark - California Analog Dream (Robag's Moppa Habax NB) (7:51)
02. Alex Attias Presents Mustang - Finding Who We Are (feat. Colonel Red) (Quarion Dub) (7:31)
03. SIOPIS - Really Love Ya (7:21)
04. Taube - Belle La Vie (6:34)
05. Low Deep T - Casablanca (7:45)
06. Eddie Richards & Gideon Jackson - Biscuit Barrel Blues (7:04)
07. Eddie Richards - Droids (7:28)
08. Rancido - Devil’s Den (6:19)
09. Hanna Haïs feat. Sandra Nankoma - Mwala Wei’ka (Original Mix) (5:44)
10. Hyenah - Tale Of The Dirt feat. Aquarius Heaven (Rampa Remix) (7:16)
11. Kollektiv Turmstrasse - Ordinary (Mick Rubins Deep) (6:01)

logs and sheets

Log EAC CD 1

Exact Audio Copy V1.3 from 2. September 2016
EAC extraction logfile from 25. October 2018, 19:40
Various Artists / Fabric 100
Used drive : PIONEER BD-RW BDR-209M Adapter: 1 ID: 0
Read mode : SecureUtilize accurate stream : YesDefeat audio cache : YesMake use of C2 pointers : No
Read offset correction : 667Overread into Lead-In and Lead-Out : NoFill up missing offset samples with silence : YesDelete leading and trailing silent blocks : NoNull samples used in CRC calculations : YesUsed interface : Native Win32 interface for Win NT & 2000Gap handling : Appended to previous track
Used output format : User Defined EncoderSelected bitrate : 1024 kBit/sQuality : HighAdd ID3 tag : NoCommand line compressor : C:\Program Files (x86)\Exact Audio Copy\Flac\flac.exeAdditional command line options : -8 -e -p -V -T "ARTIST=%artist%" -T "TITLE=%title%" -T "ALBUM=%albumtitle%" -T "DATE=%year%" -T "TRACKNUMBER=%tracknr%" -T "GENRE=%genre%" -T "PERFORMER=%albuminterpret%" -T "COMPOSER=%composer%" %haslyrics%--tag-from-file=LYRICS="%lyricsfile%"%haslyrics% -T "ALBUMARTIST=%albumartist%" -T "DISCNUMBER=%cdnumber%" -T "TOTALDISCS=%totalcds%" -T "TOTALTRACKS=%numtracks%" -T "COMMENT=%comment%" %source% -o %dest%
TOC of the extracted CD
Track | Start | Length | Start sector | End sector --------------------------------------------------------- 1 | 0:00.00 | 2:55.37 | 0 | 13161 2 | 2:55.37 | 3:09.64 | 13162 | 27400 3 | 6:05.26 | 3:35.34 | 27401 | 43559 4 | 9:40.60 | 2:55.41 | 43560 | 56725 5 | 12:36.26 | 3:24.70 | 56726 | 72095 6 | 16:01.21 | 3:43.43 | 72096 | 88863 7 | 19:44.64 | 3:21.48 | 88864 | 103986 8 | 23:06.37 | 2:55.67 | 103987 | 117178 9 | 26:02.29 | 4:14.67 | 117179 | 136295 10 | 30:17.21 | 5:14.14 | 136296 | 159859 11 | 35:31.35 | 3:23.67 | 159860 | 175151 12 | 38:55.27 | 5:19.20 | 175152 | 199096 13 | 44:14.47 | 4:57.06 | 199097 | 221377 14 | 49:11.53 | 3:03.41 | 221378 | 235143 15 | 52:15.19 | 2:48.52 | 235144 | 247795 16 | 55:03.71 | 3:30.01 | 247796 | 263546 17 | 58:33.72 | 3:03.55 | 263547 | 277326 18 | 61:37.52 | 2:15.01 | 277327 | 287452 19 | 63:52.53 | 2:59.74 | 287453 | 300951 20 | 66:52.52 | 4:50.30 | 300952 | 322731
Track 1
Filename D:\Music\2018\VA - Fabric 100 Craig Richards Terry Francis & Keith Reilly\01 - Craig Richards\01 - Monolake - Nmos.wav
Pre-gap length 0:00:02.00
Peak level 99.6 % Extraction speed 4.7 X Track quality 100.0 % Test CRC 51DC17E6 Copy CRC 51DC17E6 Track not present in AccurateRip database Copy OK
Track 2
Filename D:\Music\2018\VA - Fabric 100 Craig Richards Terry Francis & Keith Reilly\01 - Craig Richards\02 - Alphacom - Journal Square.wav
Peak level 99.8 % Extraction speed 5.2 X Track quality 100.0 % Test CRC 83B69E4C Copy CRC 83B69E4C Track not present in AccurateRip database Copy OK
Track 3
Filename D:\Music\2018\VA - Fabric 100 Craig Richards Terry Francis & Keith Reilly\01 - Craig Richards\03 - Solar X Brother Nebula - S.I.S. (Savile's Jetset Radio Remix).wav
Peak level 100.0 % Extraction speed 4.9 X Track quality 99.9 % Test CRC F3954E42 Copy CRC F3954E42 Track not present in AccurateRip database Copy OK
Track 4
Filename D:\Music\2018\VA - Fabric 100 Craig Richards Terry Francis & Keith Reilly\01 - Craig Richards\04 - Setaoc Mass - Flying Buttress.wav
Peak level 99.6 % Extraction speed 5.7 X Track quality 100.0 % Test CRC A176F3E2 Copy CRC A176F3E2 Track not present in AccurateRip database Copy OK
Track 5
Filename D:\Music\2018\VA - Fabric 100 Craig Richards Terry Francis & Keith Reilly\01 - Craig Richards\05 - D. Ball - Transition.wav
Peak level 99.6 % Extraction speed 6.2 X Track quality 100.0 % Test CRC 49863A4F Copy CRC 49863A4F Track not present in AccurateRip database Copy OK
Track 6
Filename D:\Music\2018\VA - Fabric 100 Craig Richards Terry Francis & Keith Reilly\01 - Craig Richards\06 - Larry McCormick - Ride Low.wav
Peak level 99.7 % Extraction speed 6.6 X Track quality 100.0 % Test CRC 693DCC49 Copy CRC 693DCC49 Track not present in AccurateRip database Copy OK
Track 7
Filename D:\Music\2018\VA - Fabric 100 Craig Richards Terry Francis & Keith Reilly\01 - Craig Richards\07 - Simulant - New Machines.wav
Peak level 99.6 % Extraction speed 6.7 X Track quality 100.0 % Test CRC 57F43296 Copy CRC 57F43296 Track not present in AccurateRip database Copy OK
Track 8
Filename D:\Music\2018\VA - Fabric 100 Craig Richards Terry Francis & Keith Reilly\01 - Craig Richards\08 - The Woodleigh Research Facility - The Question Oak.wav
Peak level 99.8 % Extraction speed 6.8 X Track quality 100.0 % Test CRC 5064F0AB Copy CRC 5064F0AB Track not present in AccurateRip database Copy OK
Track 9
Filename D:\Music\2018\VA - Fabric 100 Craig Richards Terry Francis & Keith Reilly\01 - Craig Richards\09 - Rutherford - Pseudo Judo.wav
Peak level 100.0 % Extraction speed 7.5 X Track quality 100.0 % Test CRC DCB96A9A Copy CRC DCB96A9A Track not present in AccurateRip database Copy OK
Track 10
Filename D:\Music\2018\VA - Fabric 100 Craig Richards Terry Francis & Keith Reilly\01 - Craig Richards\10 - Reedale Rise - Lucid Flow.wav
Peak level 99.6 % Extraction speed 8.0 X Track quality 100.0 % Test CRC 132C55EA Copy CRC 132C55EA Track not present in AccurateRip database Copy OK
Track 11
Filename D:\Music\2018\VA - Fabric 100 Craig Richards Terry Francis & Keith Reilly\01 - Craig Richards\11 - Craig Richards - My Friend Is Losing His Mind.wav
Peak level 100.0 % Extraction speed 7.6 X Track quality 100.0 % Test CRC FC7FA8DD Copy CRC FC7FA8DD Track not present in AccurateRip database Copy OK
Track 12
Filename D:\Music\2018\VA - Fabric 100 Craig Richards Terry Francis & Keith Reilly\01 - Craig Richards\12 - Fred und Luna - Monotonikum.wav
Peak level 100.0 % Extraction speed 8.4 X Track quality 100.0 % Test CRC 4B360882 Copy CRC 4B360882 Track not present in AccurateRip database Copy OK
Track 13
Filename D:\Music\2018\VA - Fabric 100 Craig Richards Terry Francis & Keith Reilly\01 - Craig Richards\13 - Nancy Noise - Azizi’s Dance (Andrew Weatherall Remix 1).wav
Peak level 99.8 % Extraction speed 8.7 X Track quality 100.0 % Test CRC 9DAE0031 Copy CRC 9DAE0031 Track not present in AccurateRip database Copy OK
Track 14
Filename D:\Music\2018\VA - Fabric 100 Craig Richards Terry Francis & Keith Reilly\01 - Craig Richards\14 - Reade Truth - Where Has Love Gone.wav
Peak level 100.0 % Extraction speed 8.3 X Track quality 100.0 % Test CRC 5CF89CB1 Copy CRC 5CF89CB1 Track not present in AccurateRip database Copy OK
Track 15
Filename D:\Music\2018\VA - Fabric 100 Craig Richards Terry Francis & Keith Reilly\01 - Craig Richards\15 - Simon Haydo - Obey.wav
Peak level 99.8 % Extraction speed 8.3 X Track quality 100.0 % Test CRC C4557BF6 Copy CRC C4557BF6 Track not present in AccurateRip database Copy OK
Track 16
Filename D:\Music\2018\VA - Fabric 100 Craig Richards Terry Francis & Keith Reilly\01 - Craig Richards\16 - DMX Krew - Bush Baby Bug Eyes.wav
Peak level 100.0 % Extraction speed 8.8 X Track quality 100.0 % Test CRC F34476B2 Copy CRC F34476B2 Track not present in AccurateRip database Copy OK
Track 17
Filename D:\Music\2018\VA - Fabric 100 Craig Richards Terry Francis & Keith Reilly\01 - Craig Richards\17 - Detromental - Rewind.wav
Peak level 99.7 % Extraction speed 8.7 X Track quality 100.0 % Test CRC 8C662A9A Copy CRC 8C662A9A Track not present in AccurateRip database Copy OK
Track 18
Filename D:\Music\2018\VA - Fabric 100 Craig Richards Terry Francis & Keith Reilly\01 - Craig Richards\18 - Mike Ash - The Fizz.wav
Peak level 99.9 % Extraction speed 8.3 X Track quality 100.0 % Test CRC 75A6C97E Copy CRC 75A6C97E Track not present in AccurateRip database Copy OK
Track 19
Filename D:\Music\2018\VA - Fabric 100 Craig Richards Terry Francis & Keith Reilly\01 - Craig Richards\19 - Zy Clone - Vectorvision vs Convextion.wav
Peak level 100.0 % Extraction speed 9.0 X Track quality 100.0 % Test CRC 4E7668E8 Copy CRC 4E7668E8 Track not present in AccurateRip database Copy OK
Track 20
Filename D:\Music\2018\VA - Fabric 100 Craig Richards Terry Francis & Keith Reilly\01 - Craig Richards\20 - Suck Seed - Orgue Electronique.wav
Peak level 100.0 % Extraction speed 9.8 X Track quality 100.0 % Test CRC 1BBF039F Copy CRC 1BBF039F Track not present in AccurateRip database Copy OK
None of the tracks are present in the AccurateRip database
No errors occurred
End of status report
---- CUETools DB Plugin V2.1.6
[CTDB TOCID: WNScN2xUVWGgh4EDqwkv1lPmK0Y-] disk not present in databaseSubmit result: WNScN2xUVWGgh4EDqwkv1lPmK0Y- has been uploaded
==== Log checksum 68081A02049B019C6C48A94F476722A5245D76D3C412B7C8A382C7109E5082DA ====

cue CD 1

REM GENRE ElectronicREM DATE 2018REM DISCID 3910CF14REM COMMENT "ExactAudioCopy v1.3"PERFORMER "Various Artists"TITLE "Fabric 100"REM COMPOSER ""FILE "01 - Monolake - Nmos.wav" WAVE  TRACK 01 AUDIO    TITLE "Nmos"    PERFORMER "Monolake "    REM COMPOSER ""    INDEX 01 00:00:00FILE "02 - Alphacom - Journal Square.wav" WAVE  TRACK 02 AUDIO    TITLE "Journal Square "    PERFORMER "Alphacom"    REM COMPOSER ""    INDEX 01 00:00:00FILE "03 - Solar X Brother Nebula - S.I.S. (Savile's Jetset Radio Remix).wav" WAVE  TRACK 03 AUDIO    TITLE "S.I.S. (Savile's Jetset Radio Remix) "    PERFORMER "Solar X Brother Nebula"    REM COMPOSER ""    INDEX 01 00:00:00FILE "04 - Setaoc Mass - Flying Buttress.wav" WAVE  TRACK 04 AUDIO    TITLE "Flying Buttress"    PERFORMER "Setaoc Mass"    REM COMPOSER ""    INDEX 01 00:00:00FILE "05 - D. Ball - Transition.wav" WAVE  TRACK 05 AUDIO    TITLE "Transition"    PERFORMER "D. Ball"    REM COMPOSER ""    INDEX 01 00:00:00FILE "06 - Larry McCormick - Ride Low.wav" WAVE  TRACK 06 AUDIO    TITLE "Ride Low "    PERFORMER "Larry McCormick"    REM COMPOSER ""    INDEX 01 00:00:00FILE "07 - Simulant - New Machines.wav" WAVE  TRACK 07 AUDIO    TITLE "New Machines "    PERFORMER "Simulant"    REM COMPOSER ""    INDEX 01 00:00:00FILE "08 - The Woodleigh Research Facility - The Question Oak.wav" WAVE  TRACK 08 AUDIO    TITLE "The Question Oak"    PERFORMER "The Woodleigh Research Facility"    REM COMPOSER ""    INDEX 01 00:00:00FILE "09 - Rutherford - Pseudo Judo.wav" WAVE  TRACK 09 AUDIO    TITLE "Pseudo Judo "    PERFORMER "Rutherford"    REM COMPOSER ""    INDEX 01 00:00:00FILE "10 - Reedale Rise - Lucid Flow.wav" WAVE  TRACK 10 AUDIO    TITLE "Lucid Flow "    PERFORMER "Reedale Rise"    REM COMPOSER ""    INDEX 01 00:00:00FILE "11 - Craig Richards - My Friend Is Losing His Mind.wav" WAVE  TRACK 11 AUDIO    TITLE "My Friend Is Losing His Mind "    PERFORMER "Craig Richards"    REM COMPOSER ""    INDEX 01 00:00:00FILE "12 - Fred und Luna - Monotonikum.wav" WAVE  TRACK 12 AUDIO    TITLE "Monotonikum"    PERFORMER "Fred und Luna"    REM COMPOSER ""    INDEX 01 00:00:00FILE "13 - Nancy Noise - Azizi’s Dance (Andrew Weatherall Remix 1).wav" WAVE  TRACK 13 AUDIO    TITLE "Azizi’s Dance (Andrew Weatherall Remix 1)"    PERFORMER "Nancy Noise"    REM COMPOSER ""    INDEX 01 00:00:00FILE "14 - Reade Truth - Where Has Love Gone.wav" WAVE  TRACK 14 AUDIO    TITLE "Where Has Love Gone "    PERFORMER "Reade Truth"    REM COMPOSER ""    INDEX 01 00:00:00FILE "15 - Simon Haydo - Obey.wav" WAVE  TRACK 15 AUDIO    TITLE "Obey?"    PERFORMER "Simon Haydo"    REM COMPOSER ""    INDEX 01 00:00:00FILE "16 - DMX Krew - Bush Baby Bug Eyes.wav" WAVE  TRACK 16 AUDIO    TITLE "Bush Baby Bug Eyes"    PERFORMER "DMX Krew"    REM COMPOSER ""    INDEX 01 00:00:00FILE "17 - Detromental - Rewind.wav" WAVE  TRACK 17 AUDIO    TITLE "Rewind"    PERFORMER "Detromental"    REM COMPOSER ""    INDEX 01 00:00:00FILE "18 - Mike Ash - The Fizz.wav" WAVE  TRACK 18 AUDIO    TITLE "The Fizz"    PERFORMER "Mike Ash"    REM COMPOSER ""    INDEX 01 00:00:00FILE "19 - Zy Clone - Vectorvision vs Convextion.wav" WAVE  TRACK 19 AUDIO    TITLE "Vectorvision vs Convextion"    PERFORMER "Zy Clone"    REM COMPOSER ""    INDEX 01 00:00:00FILE "20 - Suck Seed - Orgue Electronique.wav" WAVE  TRACK 20 AUDIO    TITLE "Orgue Electronique"    PERFORMER "Suck Seed"    REM COMPOSER ""    INDEX 01 00:00:00

Log EAC CD 2

Exact Audio Copy V1.3 from 2. September 2016
EAC extraction logfile from 25. October 2018, 20:15
Various Artists / Fabric 100 - Terry Francis
Used drive : PIONEER BD-RW BDR-209M Adapter: 1 ID: 0
Read mode : SecureUtilize accurate stream : YesDefeat audio cache : YesMake use of C2 pointers : No
Read offset correction : 667Overread into Lead-In and Lead-Out : NoFill up missing offset samples with silence : YesDelete leading and trailing silent blocks : NoNull samples used in CRC calculations : YesUsed interface : Native Win32 interface for Win NT & 2000Gap handling : Appended to previous track
Used output format : User Defined EncoderSelected bitrate : 1024 kBit/sQuality : HighAdd ID3 tag : NoCommand line compressor : C:\Program Files (x86)\Exact Audio Copy\Flac\flac.exeAdditional command line options : -8 -e -p -V -T "ARTIST=%artist%" -T "TITLE=%title%" -T "ALBUM=%albumtitle%" -T "DATE=%year%" -T "TRACKNUMBER=%tracknr%" -T "GENRE=%genre%" -T "PERFORMER=%albuminterpret%" -T "COMPOSER=%composer%" %haslyrics%--tag-from-file=LYRICS="%lyricsfile%"%haslyrics% -T "ALBUMARTIST=%albumartist%" -T "DISCNUMBER=%cdnumber%" -T "TOTALDISCS=%totalcds%" -T "TOTALTRACKS=%numtracks%" -T "COMMENT=%comment%" %source% -o %dest%
TOC of the extracted CD
Track | Start | Length | Start sector | End sector --------------------------------------------------------- 1 | 0:00.00 | 3:06.12 | 0 | 13961 2 | 3:06.12 | 4:23.17 | 13962 | 33703 3 | 7:29.29 | 3:36.58 | 33704 | 49961 4 | 11:06.12 | 4:54.14 | 49962 | 72025 5 | 16:00.26 | 5:26.09 | 72026 | 96484 6 | 21:26.35 | 3:04.63 | 96485 | 110347 7 | 24:31.23 | 1:17.31 | 110348 | 116153 8 | 25:48.54 | 6:09.51 | 116154 | 143879 9 | 31:58.30 | 2:58.04 | 143880 | 157233 10 | 34:56.34 | 3:13.41 | 157234 | 171749 11 | 38:10.00 | 2:03.66 | 171750 | 181040 12 | 40:13.66 | 4:24.14 | 181041 | 200854 13 | 44:38.05 | 3:21.22 | 200855 | 215951 14 | 47:59.27 | 4:54.14 | 215952 | 238015 15 | 52:53.41 | 3:27.06 | 238016 | 253546 16 | 56:20.47 | 0:52.19 | 253547 | 257465 17 | 57:12.66 | 6:34.63 | 257466 | 287078 18 | 63:47.54 | 5:34.62 | 287079 | 312190 19 | 69:22.41 | 9:03.15 | 312191 | 352930
Track 1
Filename D:\Music\2018\VA - Fabric 100 Craig Richards Terry Francis & Keith Reilly\02 - Terry Francis\01 - Patrick Di Stefano & Luca Doobie - Get Through (Inxec Remix).wav
Pre-gap length 0:00:02.00
Peak level 99.7 % Extraction speed 4.8 X Track quality 100.0 % Test CRC C84DEA73 Copy CRC C84DEA73 Track not present in AccurateRip database Copy OK
Track 2
Filename D:\Music\2018\VA - Fabric 100 Craig Richards Terry Francis & Keith Reilly\02 - Terry Francis\02 - Jamie Fairley - Round ‘n’ Round.wav
Peak level 99.7 % Extraction speed 5.5 X Track quality 100.0 % Test CRC 897D7B88 Copy CRC 897D7B88 Track not present in AccurateRip database Copy OK
Track 3
Filename D:\Music\2018\VA - Fabric 100 Craig Richards Terry Francis & Keith Reilly\02 - Terry Francis\03 - Jose Vizcaino - Vicious Vision.wav
Peak level 100.0 % Extraction speed 5.0 X Track quality 99.9 % Test CRC 2A81FF6A Copy CRC 2A81FF6A Track not present in AccurateRip database Copy OK
Track 4
Filename D:\Music\2018\VA - Fabric 100 Craig Richards Terry Francis & Keith Reilly\02 - Terry Francis\04 - Joeski - Cross Over (feat. Jesante).wav
Peak level 99.8 % Extraction speed 6.3 X Track quality 100.0 % Test CRC 53DFE2E0 Copy CRC 53DFE2E0 Track not present in AccurateRip database Copy OK
Track 5
Filename D:\Music\2018\VA - Fabric 100 Craig Richards Terry Francis & Keith Reilly\02 - Terry Francis\05 - Audiojack - Turya.wav
Peak level 99.7 % Extraction speed 6.9 X Track quality 100.0 % Test CRC AA2A30CC Copy CRC AA2A30CC Track not present in AccurateRip database Copy OK
Track 6
Filename D:\Music\2018\VA - Fabric 100 Craig Richards Terry Francis & Keith Reilly\02 - Terry Francis\06 - Gel Abril - Carpet Sneak.wav
Peak level 99.8 % Extraction speed 6.7 X Track quality 100.0 % Test CRC 23AF3A8C Copy CRC 23AF3A8C Track not present in AccurateRip database Copy OK
Track 7
Filename D:\Music\2018\VA - Fabric 100 Craig Richards Terry Francis & Keith Reilly\02 - Terry Francis\07 - Mauri Fly - Red Tribal ( Silvano Del Gado Remix).wav
Peak level 100.0 % Extraction speed 5.5 X Track quality 100.0 % Test CRC A95D9409 Copy CRC A95D9409 Track not present in AccurateRip database Copy OK
Track 8
Filename D:\Music\2018\VA - Fabric 100 Craig Richards Terry Francis & Keith Reilly\02 - Terry Francis\08 - Blue Wig - No Ignorance (Part 1).wav
Peak level 99.7 % Extraction speed 7.7 X Track quality 100.0 % Test CRC 6F755769 Copy CRC 6F755769 Track not present in AccurateRip database Copy OK
Track 9
Filename D:\Music\2018\VA - Fabric 100 Craig Richards Terry Francis & Keith Reilly\02 - Terry Francis\09 - Pure Science - The Way We Use To.wav
Peak level 99.7 % Extraction speed 7.3 X Track quality 100.0 % Test CRC 98735E02 Copy CRC 98735E02 Track not present in AccurateRip database Copy OK
Track 10
Filename D:\Music\2018\VA - Fabric 100 Craig Richards Terry Francis & Keith Reilly\02 - Terry Francis\10 - Argy - Love Dose.wav
Peak level 99.9 % Extraction speed 6.4 X Track quality 99.9 % Test CRC 1C725A08 Copy CRC 1C725A08 Track not present in AccurateRip database Copy OK
Track 11
Filename D:\Music\2018\VA - Fabric 100 Craig Richards Terry Francis & Keith Reilly\02 - Terry Francis\11 - Kevin Yost - Dancer Dancer.wav
Peak level 99.7 % Extraction speed 7.0 X Track quality 100.0 % Test CRC 3E243CAB Copy CRC 3E243CAB Track not present in AccurateRip database Copy OK
Track 12
Filename D:\Music\2018\VA - Fabric 100 Craig Richards Terry Francis & Keith Reilly\02 - Terry Francis\12 - Andre Salmon - Where Is The Salmon.wav
Peak level 100.0 % Extraction speed 8.2 X Track quality 100.0 % Test CRC 70B7903F Copy CRC 70B7903F Track not present in AccurateRip database Copy OK
Track 13
Filename D:\Music\2018\VA - Fabric 100 Craig Richards Terry Francis & Keith Reilly\02 - Terry Francis\13 - Francesco Robustelli - After Midnight.wav
Peak level 99.8 % Extraction speed 8.0 X Track quality 100.0 % Test CRC FDE2361E Copy CRC FDE2361E Track not present in AccurateRip database Copy OK
Track 14
Filename D:\Music\2018\VA - Fabric 100 Craig Richards Terry Francis & Keith Reilly\02 - Terry Francis\14 - Jaded & James Petrou - Toni’s Pain (INXEC's Morphine mashup).wav
Peak level 99.8 % Extraction speed 8.7 X Track quality 100.0 % Test CRC B0A76F9E Copy CRC B0A76F9E Track not present in AccurateRip database Copy OK
Track 15
Filename D:\Music\2018\VA - Fabric 100 Craig Richards Terry Francis & Keith Reilly\02 - Terry Francis\15 - Terry Francis - Wipeout.wav
Peak level 99.8 % Extraction speed 8.5 X Track quality 100.0 % Test CRC AEA12C83 Copy CRC AEA12C83 Track not present in AccurateRip database Copy OK
Track 16
Filename D:\Music\2018\VA - Fabric 100 Craig Richards Terry Francis & Keith Reilly\02 - Terry Francis\16 - Tiefschwartz - Oberton.wav
Peak level 100.0 % Extraction speed 5.8 X Track quality 100.0 % Test CRC 37041CB8 Copy CRC 37041CB8 Track not present in AccurateRip database Copy OK
Track 17
Filename D:\Music\2018\VA - Fabric 100 Craig Richards Terry Francis & Keith Reilly\02 - Terry Francis\17 - Terry Francis - Emotional Blackmail.wav
Peak level 99.7 % Extraction speed 9.5 X Track quality 100.0 % Test CRC C8DDA1B9 Copy CRC C8DDA1B9 Track not present in AccurateRip database Copy OK
Track 18
Filename D:\Music\2018\VA - Fabric 100 Craig Richards Terry Francis & Keith Reilly\02 - Terry Francis\18 - Funtopia feat. Jimi Polo - Do You Wanna Know (Club Mix).wav
Peak level 99.6 % Extraction speed 9.7 X Track quality 100.0 % Test CRC FB3219A7 Copy CRC FB3219A7 Track not present in AccurateRip database Copy OK
Track 19
Filename D:\Music\2018\VA - Fabric 100 Craig Richards Terry Francis & Keith Reilly\02 - Terry Francis\19 - Creep Show - Safe and Sound.wav
Peak level 99.7 % Extraction speed 9.9 X Track quality 99.9 % Test CRC 405BCB31 Copy CRC 405BCB31 Track not present in AccurateRip database Copy OK
None of the tracks are present in the AccurateRip database
No errors occurred
End of status report
---- CUETools DB Plugin V2.1.6
[CTDB TOCID: cpL0qgwvyVpxb_MMhn6A_0yH0B4-] disk not present in databaseSubmit result: cpL0qgwvyVpxb_MMhn6A_0yH0B4- has been uploaded
==== Log checksum D55AE25E69ECABCB2AF86C20869585558A2762FAD630E531AA640D4AF3D4BA1D ====

cue CD 2

REM GENRE ElectronicREM DATE 2018REM DISCID 20126113REM COMMENT "ExactAudioCopy v1.3"PERFORMER "Various Artists"TITLE "Fabric 100 - Terry Francis"REM COMPOSER ""FILE "01 - Patrick Di Stefano & Luca Doobie - Get Through (Inxec Remix).wav" WAVE  TRACK 01 AUDIO    TITLE "Get Through (Inxec Remix)"    PERFORMER "Patrick Di Stefano & Luca Doobie"    REM COMPOSER ""    INDEX 01 00:00:00FILE "02 - Jamie Fairley - Round ‘n’ Round.wav" WAVE  TRACK 02 AUDIO    TITLE "Round ‘n’ Round "    PERFORMER "Jamie Fairley"    REM COMPOSER ""    INDEX 01 00:00:00FILE "03 - Jose Vizcaino - Vicious Vision.wav" WAVE  TRACK 03 AUDIO    TITLE "Vicious Vision"    PERFORMER "Jose Vizcaino"    REM COMPOSER ""    INDEX 01 00:00:00FILE "04 - Joeski - Cross Over (feat. Jesante).wav" WAVE  TRACK 04 AUDIO    TITLE "Cross Over (feat. Jesante)"    PERFORMER "Joeski"    REM COMPOSER ""    INDEX 01 00:00:00FILE "05 - Audiojack - Turya.wav" WAVE  TRACK 05 AUDIO    TITLE "Turya"    PERFORMER "Audiojack"    REM COMPOSER ""    INDEX 01 00:00:00FILE "06 - Gel Abril - Carpet Sneak.wav" WAVE  TRACK 06 AUDIO    TITLE "Carpet Sneak"    PERFORMER "Gel Abril"    REM COMPOSER ""    INDEX 01 00:00:00FILE "07 - Mauri Fly - Red Tribal ( Silvano Del Gado Remix).wav" WAVE  TRACK 07 AUDIO    TITLE "Red Tribal ( Silvano Del Gado Remix) "    PERFORMER "Mauri Fly"    REM COMPOSER ""    INDEX 01 00:00:00FILE "08 - Blue Wig - No Ignorance (Part 1).wav" WAVE  TRACK 08 AUDIO    TITLE "No Ignorance (Part 1) "    PERFORMER "Blue Wig"    REM COMPOSER ""    INDEX 01 00:00:00FILE "09 - Pure Science - The Way We Use To.wav" WAVE  TRACK 09 AUDIO    TITLE "The Way We Use To "    PERFORMER "Pure Science"    REM COMPOSER ""    INDEX 01 00:00:00FILE "10 - Argy - Love Dose.wav" WAVE  TRACK 10 AUDIO    TITLE "Love Dose"    PERFORMER "Argy"    REM COMPOSER ""    INDEX 01 00:00:00FILE "11 - Kevin Yost - Dancer Dancer.wav" WAVE  TRACK 11 AUDIO    TITLE "Dancer Dancer"    PERFORMER "Kevin Yost"    REM COMPOSER ""    INDEX 01 00:00:00FILE "12 - Andre Salmon - Where Is The Salmon.wav" WAVE  TRACK 12 AUDIO    TITLE "Where Is The Salmon "    PERFORMER "Andre Salmon"    REM COMPOSER ""    INDEX 01 00:00:00FILE "13 - Francesco Robustelli - After Midnight.wav" WAVE  TRACK 13 AUDIO    TITLE "After Midnight "    PERFORMER "Francesco Robustelli"    REM COMPOSER ""    INDEX 01 00:00:00FILE "14 - Jaded & James Petrou - Toni’s Pain (INXEC's Morphine mashup).wav" WAVE  TRACK 14 AUDIO    TITLE "Toni’s Pain (INXEC's Morphine mashup) "    PERFORMER "Jaded & James Petrou"    REM COMPOSER ""    INDEX 01 00:00:00FILE "15 - Terry Francis - Wipeout.wav" WAVE  TRACK 15 AUDIO    TITLE "Wipeout "    PERFORMER "Terry Francis"    REM COMPOSER ""    INDEX 01 00:00:00FILE "16 - Tiefschwartz - Oberton.wav" WAVE  TRACK 16 AUDIO    TITLE "Oberton "    PERFORMER "Tiefschwartz"    REM COMPOSER ""    INDEX 01 00:00:00FILE "17 - Terry Francis - Emotional Blackmail.wav" WAVE  TRACK 17 AUDIO    TITLE "Emotional Blackmail "    PERFORMER "Terry Francis"    REM COMPOSER ""    INDEX 01 00:00:00FILE "18 - Funtopia feat. Jimi Polo - Do You Wanna Know (Club Mix).wav" WAVE  TRACK 18 AUDIO    TITLE "Do You Wanna Know (Club Mix)"    PERFORMER "Funtopia feat. Jimi Polo"    REM COMPOSER ""    INDEX 01 00:00:00FILE "19 - Creep Show - Safe and Sound.wav" WAVE  TRACK 19 AUDIO    TITLE "Safe and Sound "    PERFORMER "Creep Show"    REM COMPOSER ""    INDEX 01 00:00:00

Log EAC CD 3

Exact Audio Copy V1.3 from 2. September 2016
EAC extraction logfile from 25. October 2018, 21:05
Various Artists / Fabric 100 - Keith Reilly
Used drive : PIONEER BD-RW BDR-209M Adapter: 1 ID: 0
Read mode : SecureUtilize accurate stream : YesDefeat audio cache : YesMake use of C2 pointers : No
Read offset correction : 667Overread into Lead-In and Lead-Out : NoFill up missing offset samples with silence : YesDelete leading and trailing silent blocks : NoNull samples used in CRC calculations : YesUsed interface : Native Win32 interface for Win NT & 2000Gap handling : Appended to previous track
Used output format : User Defined EncoderSelected bitrate : 1024 kBit/sQuality : HighAdd ID3 tag : NoCommand line compressor : C:\Program Files (x86)\Exact Audio Copy\Flac\flac.exeAdditional command line options : -8 -e -p -V -T "ARTIST=%artist%" -T "TITLE=%title%" -T "ALBUM=%albumtitle%" -T "DATE=%year%" -T "TRACKNUMBER=%tracknr%" -T "GENRE=%genre%" -T "PERFORMER=%albuminterpret%" -T "COMPOSER=%composer%" %haslyrics%--tag-from-file=LYRICS="%lyricsfile%"%haslyrics% -T "ALBUMARTIST=%albumartist%" -T "DISCNUMBER=%cdnumber%" -T "TOTALDISCS=%totalcds%" -T "TOTALTRACKS=%numtracks%" -T "COMMENT=%comment%" %source% -o %dest%
TOC of the extracted CD
Track | Start | Length | Start sector | End sector --------------------------------------------------------- 1 | 0:00.00 | 7:50.39 | 0 | 35288 2 | 7:50.39 | 7:30.39 | 35289 | 69077 3 | 15:21.03 | 7:21.00 | 69078 | 102152 4 | 22:42.03 | 6:33.38 | 102153 | 131665 5 | 29:15.41 | 7:44.74 | 131666 | 166539 6 | 37:00.40 | 7:04.02 | 166540 | 198341 7 | 44:04.42 | 7:27.74 | 198342 | 231940 8 | 51:32.41 | 6:19.00 | 231941 | 260365 9 | 57:51.41 | 5:44.37 | 260366 | 286202 10 | 63:36.03 | 7:16.01 | 286203 | 318903 11 | 70:52.04 | 6:00.55 | 318904 | 345958
Track 1
Filename D:\Music\2018\VA - Fabric 100 Craig Richards Terry Francis & Keith Reilly\03 - Keith Reilly\01 - Vondelpark - California Analog Dream (Robag's Moppa Habax NB).wav
Pre-gap length 0:00:02.00
Peak level 99.8 % Extraction speed 5.6 X Track quality 100.0 % Test CRC EB867630 Copy CRC EB867630 Track not present in AccurateRip database Copy OK
Track 2
Filename D:\Music\2018\VA - Fabric 100 Craig Richards Terry Francis & Keith Reilly\03 - Keith Reilly\02 - Alex Attias Presents Mustang - Finding Who We Are (feat. Colonel Red) (Quarion Dub).wav
Peak level 99.7 % Extraction speed 6.0 X Track quality 99.9 % Test CRC 14FA088B Copy CRC 14FA088B Track not present in AccurateRip database Copy OK
Track 3
Filename D:\Music\2018\VA - Fabric 100 Craig Richards Terry Francis & Keith Reilly\03 - Keith Reilly\03 - SIOPIS - Really Love Ya.wav
Peak level 100.0 % Extraction speed 7.1 X Track quality 100.0 % Test CRC 01165304 Copy CRC 01165304 Track not present in AccurateRip database Copy OK
Track 4
Filename D:\Music\2018\VA - Fabric 100 Craig Richards Terry Francis & Keith Reilly\03 - Keith Reilly\04 - Taube - Belle La Vie.wav
Peak level 100.0 % Extraction speed 7.6 X Track quality 100.0 % Test CRC 5BE1D9DC Copy CRC 5BE1D9DC Track not present in AccurateRip database Copy OK
Track 5
Filename D:\Music\2018\VA - Fabric 100 Craig Richards Terry Francis & Keith Reilly\03 - Keith Reilly\05 - Low Deep T - Casablanca.wav
Peak level 99.7 % Extraction speed 8.2 X Track quality 100.0 % Test CRC 3519E812 Copy CRC 3519E812 Track not present in AccurateRip database Copy OK
Track 6
Filename D:\Music\2018\VA - Fabric 100 Craig Richards Terry Francis & Keith Reilly\03 - Keith Reilly\06 - Eddie Richards & Gideon Jackson - Biscuit Barrel Blues.wav
Peak level 100.0 % Extraction speed 8.6 X Track quality 100.0 % Test CRC D111A4CD Copy CRC D111A4CD Track not present in AccurateRip database Copy OK
Track 7
Filename D:\Music\2018\VA - Fabric 100 Craig Richards Terry Francis & Keith Reilly\03 - Keith Reilly\07 - Eddie Richards - Droids.wav
Peak level 100.0 % Extraction speed 9.0 X Track quality 100.0 % Test CRC 035313AC Copy CRC 035313AC Track not present in AccurateRip database Copy OK
Track 8
Filename D:\Music\2018\VA - Fabric 100 Craig Richards Terry Francis & Keith Reilly\03 - Keith Reilly\08 - Rancido - Devil’s Den.wav
Peak level 99.7 % Extraction speed 9.3 X Track quality 100.0 % Test CRC E3B99DCE Copy CRC E3B99DCE Track not present in AccurateRip database Copy OK
Track 9
Filename D:\Music\2018\VA - Fabric 100 Craig Richards Terry Francis & Keith Reilly\03 - Keith Reilly\09 - Hanna Haïs feat. Sandra Nankoma - Mwala Wei’ka (Original Mix).wav
Peak level 99.8 % Extraction speed 9.6 X Track quality 100.0 % Test CRC FC59CFCB Copy CRC FC59CFCB Track not present in AccurateRip database Copy OK
Track 10
Filename D:\Music\2018\VA - Fabric 100 Craig Richards Terry Francis & Keith Reilly\03 - Keith Reilly\10 - Hyenah - Tale Of The Dirt feat. Aquarius Heaven (Rampa Remix).wav
Peak level 99.9 % Extraction speed 10.1 X Track quality 100.0 % Test CRC 72F9C501 Copy CRC 72F9C501 Track not present in AccurateRip database Copy OK
Track 11
Filename D:\Music\2018\VA - Fabric 100 Craig Richards Terry Francis & Keith Reilly\03 - Keith Reilly\11 - Kollektiv Turmstrasse - Ordinary (Mick Rubins Deep).wav
Peak level 99.7 % Extraction speed 10.2 X Track quality 100.0 % Test CRC 9CB6FB38 Copy CRC 9CB6FB38 Track not present in AccurateRip database Copy OK
None of the tracks are present in the AccurateRip database
No errors occurred
End of status report
---- CUETools DB Plugin V2.1.6
[CTDB TOCID: StgQVMhnhzqJazwlWdYyzWoCir4-] disk not present in databaseSubmit result: StgQVMhnhzqJazwlWdYyzWoCir4- has been uploaded
==== Log checksum 82621EBBAB298F1DDC0C27B606323EE8713615AA886974BB4476E83CA814315C ====

cue CD 3

REM GENRE ElectronicREM DATE 2018REM DISCID 9D12040BREM COMMENT "ExactAudioCopy v1.3"PERFORMER "Various Artists"TITLE "Fabric 100 - Keith Reilly"REM COMPOSER ""FILE "01 - Vondelpark - California Analog Dream (Robag's Moppa Habax NB).wav" WAVE  TRACK 01 AUDIO    TITLE "California Analog Dream (Robag's Moppa Habax NB)"    PERFORMER "Vondelpark"    REM COMPOSER ""    INDEX 01 00:00:00FILE "02 - Alex Attias Presents Mustang - Finding Who We Are (feat. Colonel Red) (Quarion Dub).wav" WAVE  TRACK 02 AUDIO    TITLE "Finding Who We Are (feat. Colonel Red) (Quarion Dub)"    PERFORMER "Alex Attias Presents Mustang"    REM COMPOSER ""    INDEX 01 00:00:00FILE "03 - SIOPIS - Really Love Ya.wav" WAVE  TRACK 03 AUDIO    TITLE "Really Love Ya"    PERFORMER "SIOPIS"    REM COMPOSER ""    INDEX 01 00:00:00FILE "04 - Taube - Belle La Vie.wav" WAVE  TRACK 04 AUDIO    TITLE "Belle La Vie"    PERFORMER "Taube"    REM COMPOSER ""    INDEX 01 00:00:00FILE "05 - Low Deep T - Casablanca.wav" WAVE  TRACK 05 AUDIO    TITLE "Casablanca"    PERFORMER "Low Deep T"    REM COMPOSER ""    INDEX 01 00:00:00FILE "06 - Eddie Richards & Gideon Jackson - Biscuit Barrel Blues.wav" WAVE  TRACK 06 AUDIO    TITLE "Biscuit Barrel Blues"    PERFORMER "Eddie Richards & Gideon Jackson"    REM COMPOSER ""    INDEX 01 00:00:00FILE "07 - Eddie Richards - Droids.wav" WAVE  TRACK 07 AUDIO    TITLE "Droids"    PERFORMER "Eddie Richards"    REM COMPOSER ""    INDEX 01 00:00:00FILE "08 - Rancido - Devil’s Den.wav" WAVE  TRACK 08 AUDIO    TITLE "Devil’s Den"    PERFORMER "Rancido"    REM COMPOSER ""    INDEX 01 00:00:00FILE "09 - Hanna Haпs feat. Sandra Nankoma - Mwala Wei’ka (Original Mix).wav" WAVE  TRACK 09 AUDIO    TITLE "Mwala Wei’ka (Original Mix)"    PERFORMER "Hanna Haпs feat. Sandra Nankoma"    REM COMPOSER ""    INDEX 01 00:00:00FILE "10 - Hyenah - Tale Of The Dirt feat. Aquarius Heaven (Rampa Remix).wav" WAVE  TRACK 10 AUDIO    TITLE "Tale Of The Dirt feat. Aquarius Heaven (Rampa Remix) "    PERFORMER "Hyenah"    REM COMPOSER ""    INDEX 01 00:00:00FILE "11 - Kollektiv Turmstrasse - Ordinary (Mick Rubins Deep).wav" WAVE  TRACK 11 AUDIO    TITLE "Ordinary (Mick Rubins Deep)"    PERFORMER "Kollektiv Turmstrasse"    REM COMPOSER ""    INDEX 01 00:00:00
Вы не можете начинать темы
Вы не можете отвечать на сообщения
Вы не можете редактировать свои сообщения
Вы не можете удалять свои сообщения
Вы не можете голосовать в опросах
Вы не можете прикреплять файлы к сообщениям
Вы можете скачивать файлы
!ВНИМАНИЕ!

Сайт не предоставляет электронные версии произведений, а занимается лишь коллекционированием и каталогизацией ссылок, присылаемых и публикуемых на форуме нашими читателями. Если вы являетесь правообладателем какого-либо представленного материала и не желаете, чтобы ссылка на него находилась в нашем каталоге, свяжитесь с нами, и мы незамедлительно удалим ее. Файлы для обмена на трекере предоставлены пользователями сайта, и администрация не несет ответственности за их содержание. Просьба не заливать файлы, защищенные авторскими правами, а также файлы нелегального содержания!

Искали программы, игры, дополнения, музыка mp3, аниме, аудио книги, журналы? Добро пожаловать на свободный торрент трекер Torrents, у нас можно скачать бесплатно, без смс и регистрации и прочих ограничений лучшие, отборные сборки программ, игр. Скачать торрентом не составит труда даже не опытному пользователю. Раздачи ежедневно обновляются, только лучшие и качественные раздачи, подробные описания и скриншоты. Огромная коллекция программ для работы со звуком, графикой, дизайном, а так же множество плагинов и инструментов к ним с подробной инструкцией и рекомендациями. Прошивки для навигаторов, карты. Разнообразные игры, для Windows, Linux. В коллекцие есть и старые игры любых жанров, Rpg, Action, Shooter, strategy Множество дополнений, модификаций, сценариев для популярных игр в жанре экш, рпг, гонки, стратегии, логические игры. Множество аддонов и сценариев для Microsoft Flight Simulator Большая коллекция книг, учебников. Если нет возможности купить печатное издание - смело скачивайте цифровую версию книги или, быть может, журнала. Не любите читать - можно загрузить бесплатно аудикнигу. Для веб дизайнеров и программистов так же найдется множество специализированного софта, таких как: редакторы с подсветкой, среды программирования, компоненты, системы управления базами данных, разнообразные скрипты и шаблоны. Не так давно у нас появился материал для автолюбителей и владельцев мото - оригинальные и неоригинальные каталоги запчастей, книги и журналы по ремонту и обслуживанию, видеоуроки, статьи по чип тюнингу, прошивкам. Процедура получения контента элементарная, достаточно просто скачать торрент файл и добавить его в загрузку в вашем торрент клиенте. Если у вас нет специального торрент клиента, вы можете его скачать у нас.