(Melodic Rock | AOR) [CD] The Cast - Heat And Serve - 1993, FLAC (image+.cue), lossless 

Цитировать
The Cast / Heat And Serve

Жанр: Melodic Rock | AOR
Носитель: CD
Страна-производитель диска (релиза): Canada
Год издания: 1993
Издатель (лейбл): Dance Plant Records Inc. / CMC
Номер по каталогу: ISCD-2039
Страна исполнителя (группы): Canada
Аудиокодек: FLAC (*.flac)
Тип рипа: image+.cue
Битрейт аудио: lossless
Продолжительность: 32:17
Источник (релизер): alzal (спасибо !)
Наличие сканов в содержимом раздачи: да
Треклист:
01. Do You Feel (3:32)
02. Look Out (4:35)
03. Eve (3:52)
04. Mr. Marshall (3:08)
05. Love Walks In (4:24)
06. Heat & Serve (4:18)
07. On Without You (4:23)
08. Love You Anyway (4:05)

Лог создания рипа

Exact Audio Copy V1.3 from 2. September 2016
Отчёт EAC об извлечении, выполненном 24. октября 2018, 20:22
The Cast / Heat And Serve (ISCD-2039)
Дисковод: PLEXTOR BD-R PX-B950SA Adapter: 1 ID: 0
Режим чтения : ДостоверностьИспользование точного потока : ДаОтключение кэша аудио : ДаИспользование указателей C2 : Нет
Коррекция смещения при чтении : 6Способность читать области Lead-in и Lead-out : НетЗаполнение пропущенных сэмплов тишиной : ДаУдаление блоков с тишиной в начале и конце : НетПри вычислениях CRC использовались нулевые сэмплы : ДаИнтерфейс : Встроенный Win32-интерфейс для Win NT/2000
Выходной формат : Пользовательский кодировщикВыбранный битрейт : 1024 kBit/sКачество : ВысокийДобавление ID3-тега : НетУтилита сжатия : C:\Program Files (x86)\Exact Audio Copy\FLAC\FLAC.EXEДополнительные параметры : -6 -V -T "ARTIST=%artist%" -T "TITLE=%title%" -T "ALBUM=%albumtitle%" -T "DATE=%year%" -T "TRACKNUMBER=%tracknr%" -T "GENRE=%genre%" -T "COMMENT=%comment%" -T "BAND=%albuminterpret%" -T "ALBUMARTIST=%albuminterpret%" -T "COMPOSER=%composer%" %haslyrics%--tag-from-file=LYRICS="%lyricsfile%"%haslyrics% -T "DISCNUMBER=%cdnumber%" -T "TOTALDISCS=%totalcds%" -T "TOTALTRACKS=%numtracks%" %hascover%--picture="%coverfile%"%hascover% %source% -o %dest%
TOC извлечённого CD
Трек | Старт | Длительность | Начальный сектор | Конечный сектор --------------------------------------------------------------------- 1 | 0:00.00 | 3:31.70 | 0 | 15894 2 | 3:31.70 | 4:34.45 | 15895 | 36489 3 | 8:06.40 | 3:51.57 | 36490 | 53871 4 | 11:58.22 | 3:08.30 | 53872 | 68001 5 | 15:06.52 | 4:23.70 | 68002 | 87796 6 | 19:30.47 | 4:18.00 | 87797 | 107146 7 | 23:48.47 | 4:23.33 | 107147 | 126904 8 | 28:12.05 | 4:04.72 | 126905 | 145276
Характеристики диапазона извлечения и сообщения об ошибках
Выбранный диапазон
Имя файла G:\RIP\The Cast 1993 FLAC by alzal\The Cast - Heat And Serve (ISCD-2039).wav
Пиковый уровень 100.0 % Скорость извлечения 3.0 X Качество диапазона 100.0 % CRC теста 9DF2FB3D CRC копии 9DF2FB3D Копирование... OK
Ошибок не произошло
AccurateRip: сводка
Трек 1 : извлечено точно (доверие 1) [29AEF009] (AR v2)Трек 2 : извлечено точно (доверие 1) [7EA8CEA7] (AR v2)Трек 3 : извлечено точно (доверие 1) [865FF64C] (AR v2)Трек 4 : извлечено точно (доверие 1) [7913725E] (AR v2)Трек 5 : извлечено точно (доверие 1) [CD8EA53B] (AR v2)Трек 6 : извлечено точно (доверие 1) [0D66AE8E] (AR v2)Трек 7 : извлечено точно (доверие 1) [11BA11F3] (AR v2)Трек 8 : извлечено точно (доверие 1) [9E8C66C7] (AR v2)
Все треки извлечены точно
Конец отчёта
---- CUETools DB Plugin V2.1.6
[CTDB TOCID: MwvatXVWePDktd58Shb0zl_lSTQ-] foundSubmit result: MwvatXVWePDktd58Shb0zl_lSTQ- has been confirmedTrack | CTDB Status 1 | (1/1) Accurately ripped 2 | (1/1) Accurately ripped 3 | (1/1) Accurately ripped 4 | (1/1) Accurately ripped 5 | (1/1) Accurately ripped 6 | (1/1) Accurately ripped 7 | (1/1) Accurately ripped 8 | (1/1) Accurately ripped
==== Контрольная сумма отчёта DB2666E9D39D621F1279FEC984AD48C2C65FA8E3F18BE745056B61A6010D89D6 ====

Лог проверки качества

-----------------------
DON'T MODIFY THIS FILE
-----------------------
PERFORMER: auCDtect Task Manager, ver. 1.6.0 RC1 build 1.6.0.1Copyright (c) 2008-2010 y-soft. All rights reservedhttp://y-soft.org
ANALYZER: auCDtect: CD records authenticity detector, version 0.8.2Copyright (c) 2004 Oleg Berngardt. All rights reserved.Copyright (c) 2004 Alexander Djourik. All rights reserved.
FILE: The Cast - Heat And Serve (ISCD-2039).flac Size: 231694321 Hash: 051A121E7A6A77908362DB2FF3E2C15F Accuracy: -m0 Conclusion: CDDA 99% Signature: 32E585B0EBACDF45B0B46B0EC23E21B860FA11FF

Лог DRM

foobar2000 1.2.9 / Dynamic Range Meter 1.1.1log date: 2018-10-27 20:35:23
--------------------------------------------------------------------------------Analyzed: The Cast / Heat And Serve (ISCD-2039)--------------------------------------------------------------------------------
DR Peak RMS Duration Track--------------------------------------------------------------------------------DR10 -1.57 dB -13.86 dB 3:32 01-Do You FeelDR9 -0.60 dB -11.59 dB 4:35 02-Look OutDR12 -0.38 dB -14.85 dB 3:52 03-EveDR9 -0.47 dB -11.45 dB 3:08 04-Mr. MarshallDR10 -0.67 dB -13.39 dB 4:24 05-Love Walks InDR11 -0.91 dB -14.14 dB 4:18 06-Heat & ServeDR11 0.00 dB -13.91 dB 4:23 07-On Without YouDR11 -0.73 dB -14.06 dB 4:05 08-Love You Anyway--------------------------------------------------------------------------------
Number of tracks: 8Official DR value: DR10
Samplerate: 44100 HzChannels: 2Bits per sample: 16Bitrate: 957 kbpsCodec: FLAC================================================================================

Об альбоме (сборнике)

http://rutracker.org/forum/viewtopic.php?t=3010068

Состав

Peter Cast - Vocals
Rob Santos - Bass & Vocals
Sergio Lione - Drums
Frank Saragosa - Keyboards, Vocals
Nicholas Zevgolis - Guitar, Vocals
Phil Reznick - All Guitars
Produced by Frank Marino
Recorded & Mixed at Starbase, Montreal
Вы не можете начинать темы
Вы не можете отвечать на сообщения
Вы не можете редактировать свои сообщения
Вы не можете удалять свои сообщения
Вы не можете голосовать в опросах
Вы не можете прикреплять файлы к сообщениям
Вы можете скачивать файлы
!ВНИМАНИЕ!

Сайт не предоставляет электронные версии произведений, а занимается лишь коллекционированием и каталогизацией ссылок, присылаемых и публикуемых на форуме нашими читателями. Если вы являетесь правообладателем какого-либо представленного материала и не желаете, чтобы ссылка на него находилась в нашем каталоге, свяжитесь с нами, и мы незамедлительно удалим ее. Файлы для обмена на трекере предоставлены пользователями сайта, и администрация не несет ответственности за их содержание. Просьба не заливать файлы, защищенные авторскими правами, а также файлы нелегального содержания!

Искали программы, игры, дополнения, музыка mp3, аниме, аудио книги, журналы? Добро пожаловать на свободный торрент трекер Torrents, у нас можно скачать бесплатно, без смс и регистрации и прочих ограничений лучшие, отборные сборки программ, игр. Скачать торрентом не составит труда даже не опытному пользователю. Раздачи ежедневно обновляются, только лучшие и качественные раздачи, подробные описания и скриншоты. Огромная коллекция программ для работы со звуком, графикой, дизайном, а так же множество плагинов и инструментов к ним с подробной инструкцией и рекомендациями. Прошивки для навигаторов, карты. Разнообразные игры, для Windows, Linux. В коллекцие есть и старые игры любых жанров, Rpg, Action, Shooter, strategy Множество дополнений, модификаций, сценариев для популярных игр в жанре экш, рпг, гонки, стратегии, логические игры. Множество аддонов и сценариев для Microsoft Flight Simulator Большая коллекция книг, учебников. Если нет возможности купить печатное издание - смело скачивайте цифровую версию книги или, быть может, журнала. Не любите читать - можно загрузить бесплатно аудикнигу. Для веб дизайнеров и программистов так же найдется множество специализированного софта, таких как: редакторы с подсветкой, среды программирования, компоненты, системы управления базами данных, разнообразные скрипты и шаблоны. Не так давно у нас появился материал для автолюбителей и владельцев мото - оригинальные и неоригинальные каталоги запчастей, книги и журналы по ремонту и обслуживанию, видеоуроки, статьи по чип тюнингу, прошивкам. Процедура получения контента элементарная, достаточно просто скачать торрент файл и добавить его в загрузку в вашем торрент клиенте. Если у вас нет специального торрент клиента, вы можете его скачать у нас.