(Techno, Electro) [CD] Green Velvet - Whatever [#MMCD 016] - 2001, FLAC (tracks+.cue), lossless 

Цитировать
Green Velvet - Whatever
Жанр: Techno, Electro
Год выпуска диска: 2001
Производитель диска: Belgium \ Music Man Records
Аудио кодек: FLAC
Тип рипа: tracks+.cue
Битрейт аудио: lossless
Продолжительность: 49 min 53 sec
Источник: собственный рип

1. Genedefekt (3:30)
2. La La Land (5:01)
3. Stranj (4:52)
4. When? (5:34)
5. Sleepwalking (4:52)
6. Stop Lyin' (4:38)
7. Minimum Rage (7:05)
8. Gat (The Great American Tragedy) (3:06)
9. Waiting 4 the Day 2 end (3:26)
10. Dank (7:49)

28 10 2018 рип заменён на собственноручный

Тех.данные видео:

GENEDEFEKT

Формат: MPEG-PS
Видео: MPEG-1 Video, 352 x 256, 1.467, 4 513 Kbps, 25.000 fps, 2.003 b/px
Аудио: MPEG-1 Audio layer 2, 224 Kbps, CBR, 44.1 KHz, 2 ch.
Продолжительность: 2mn 46s-

LALALAND

Формат: MPEG-PS
Видео: MPEG-1 Video, 352 x 256, 1.467, 3 543 Kbps, 25.000 fps, 1.573 b/px
Аудио: MPEG-1 Audio layer 2, 224 Kbps, CBR, 44.1 KHz, 2 ch.
Продолжительность: 3mn 39s-

Скриншоты


Log

Exact Audio Copy V1.3 from 2. September 2016
EAC extraction logfile from 27. October 2018, 17:45
Green Velvet / Whatever
Used drive : ASUS DRW-24B5ST Adapter: 6 ID: 0
Read mode : SecureUtilize accurate stream : YesDefeat audio cache : YesMake use of C2 pointers : No
Read offset correction : 6Overread into Lead-In and Lead-Out : NoFill up missing offset samples with silence : YesDelete leading and trailing silent blocks : NoNull samples used in CRC calculations : YesUsed interface : Installed external ASPI interfaceGap handling : Appended to previous track
Used output format : User Defined EncoderSelected bitrate : 128 kBit/sQuality : HighAdd ID3 tag : NoCommand line compressor : D:\flac-1.3.2-win\win64\flac.exeAdditional command line options : -8 -V -T "ARTIST=%artist%" -T "TITLE=%title%" -T "ALBUM=%albumtitle%" -T "DATE=%year%" -T "TRACKNUMBER=%tracknr%" -T "GENRE=%genre%" -T "COMMENT=ripped by Andy aka yetiisyou" %source%
TOC of the extracted CD
Track | Start | Length | Start sector | End sector --------------------------------------------------------- 1 | 0:00.00 | 3:30.43 | 0 | 15792 2 | 3:30.43 | 5:01.43 | 15793 | 38410 3 | 8:32.11 | 4:52.57 | 38411 | 60367 4 | 13:24.68 | 5:34.29 | 60368 | 85446 5 | 18:59.22 | 4:52.01 | 85447 | 107347 6 | 23:51.23 | 4:38.68 | 107348 | 128265 7 | 28:30.16 | 7:05.08 | 128266 | 160148 8 | 35:35.24 | 3:06.68 | 160149 | 174166 9 | 38:42.17 | 3:26.03 | 174167 | 189619 10 | 42:08.20 | 7:49.63 | 189620 | 224857
Track 1
Filename E:\!Ripped by Andy aka yetiisyou\Green Velvet - Whatever (2001) [FLAC]\01. Green Velvet - Genedefekt.wav
Pre-gap length 0:00:02.00
Peak level 94.4 % Extraction speed 3.3 X Track quality 100.0 % Test CRC C8E1DB3C Copy CRC C8E1DB3C Accurately ripped (confidence 3) [53FC29E7] (AR v2) Copy OK
Track 2
Filename E:\!Ripped by Andy aka yetiisyou\Green Velvet - Whatever (2001) [FLAC]\02. Green Velvet - La La Land.wav
Pre-gap length 0:00:00.01
Peak level 94.4 % Extraction speed 3.8 X Track quality 100.0 % Test CRC 3F86C903 Copy CRC 3F86C903 Accurately ripped (confidence 3) [D01EA672] (AR v2) Copy OK
Track 3
Filename E:\!Ripped by Andy aka yetiisyou\Green Velvet - Whatever (2001) [FLAC]\03. Green Velvet - Stranj.wav
Pre-gap length 0:00:00.01
Peak level 94.4 % Extraction speed 4.2 X Track quality 100.0 % Test CRC D2B7465F Copy CRC D2B7465F Accurately ripped (confidence 3) [5B8D04DE] (AR v2) Copy OK
Track 4
Filename E:\!Ripped by Andy aka yetiisyou\Green Velvet - Whatever (2001) [FLAC]\04. Green Velvet - When.wav
Pre-gap length 0:00:00.01
Peak level 94.4 % Extraction speed 4.7 X Track quality 100.0 % Test CRC 32A07807 Copy CRC 32A07807 Accurately ripped (confidence 2) [4F88B119] (AR v2) Copy OK
Track 5
Filename E:\!Ripped by Andy aka yetiisyou\Green Velvet - Whatever (2001) [FLAC]\05. Green Velvet - Sleepwalking.wav
Pre-gap length 0:00:00.01
Peak level 94.4 % Extraction speed 5.0 X Track quality 100.0 % Test CRC 113401DF Copy CRC 113401DF Accurately ripped (confidence 3) [EB073614] (AR v2) Copy OK
Track 6
Filename E:\!Ripped by Andy aka yetiisyou\Green Velvet - Whatever (2001) [FLAC]\06. Green Velvet - Stop Lyin'.wav
Peak level 95.6 % Extraction speed 5.3 X Track quality 100.0 % Test CRC 3D591F1D Copy CRC 3D591F1D Accurately ripped (confidence 3) [F7A99A32] (AR v2) Copy OK
Track 7
Filename E:\!Ripped by Andy aka yetiisyou\Green Velvet - Whatever (2001) [FLAC]\07. Green Velvet - Minimum Rage.wav
Pre-gap length 0:00:00.01
Peak level 94.6 % Extraction speed 5.8 X Track quality 100.0 % Test CRC BCB82797 Copy CRC BCB82797 Accurately ripped (confidence 3) [4751CFE5] (AR v2) Copy OK
Track 8
Filename E:\!Ripped by Andy aka yetiisyou\Green Velvet - Whatever (2001) [FLAC]\08. Green Velvet - GAT (The Great American Tragedy).wav
Pre-gap length 0:00:00.01
Peak level 94.4 % Extraction speed 4.7 X Track quality 99.9 % Test CRC DCFA5332 Copy CRC DCFA5332 Accurately ripped (confidence 3) [A4312993] (AR v2) Copy OK
Track 9
Filename E:\!Ripped by Andy aka yetiisyou\Green Velvet - Whatever (2001) [FLAC]\09. Green Velvet - Waitin' 4 the Day2end.wav
Pre-gap length 0:00:00.01
Peak level 97.7 % Extraction speed 5.8 X Track quality 100.0 % Test CRC 67EB9F77 Copy CRC 67EB9F77 Accurately ripped (confidence 3) [18F422E0] (AR v2) Copy OK
Track 10
Filename E:\!Ripped by Andy aka yetiisyou\Green Velvet - Whatever (2001) [FLAC]\10. Green Velvet - Dank , Why Try.wav
Pre-gap length 0:00:00.01
Peak level 97.7 % Extraction speed 4.6 X Track quality 99.9 % Test CRC 519574F2 Copy CRC 519574F2 Accurately ripped (confidence 3) [26FE6887] (AR v2) Copy OK
All tracks accurately ripped
No errors occurred
End of status report
---- CUETools DB Plugin V2.1.6
[CTDB TOCID: 0M7Me7yLiIn_nEzwglse6cfaqOo-] foundSubmit result: 0M7Me7yLiIn_nEzwglse6cfaqOo- has been confirmedTrack | CTDB Status 1 | (8/9) Accurately ripped 2 | (8/9) Accurately ripped 3 | (9/9) Accurately ripped 4 | (8/9) Accurately ripped 5 | (9/9) Accurately ripped 6 | (9/9) Accurately ripped 7 | (9/9) Accurately ripped 8 | (9/9) Accurately ripped 9 | (8/9) Accurately ripped 10 | (9/9) Accurately ripped
==== Log checksum 687EE09E95246BA557345A5C911BD427110BE864E81739CFA1B4A700F1BFF9A5 ====

CUE

REM DATE 2001REM DISCID 5E0BB60AREM COMMENT "ExactAudioCopy v1.3"PERFORMER "Green Velvet"TITLE "Whatever"REM COMPOSER ""FILE "01. Green Velvet - Genedefekt.wav" WAVE  TRACK 01 AUDIO    TITLE "Genedefekt"    PERFORMER "Green Velvet"    REM COMPOSER ""    FLAGS DCP    INDEX 01 00:00:00  TRACK 02 AUDIO    TITLE "La La Land"    PERFORMER "Green Velvet"    REM COMPOSER ""    FLAGS DCP    INDEX 00 03:30:42FILE "02. Green Velvet - La La Land.wav" WAVE    INDEX 01 00:00:00  TRACK 03 AUDIO    TITLE "Stranj"    PERFORMER "Green Velvet"    REM COMPOSER ""    FLAGS DCP    INDEX 00 05:01:42FILE "03. Green Velvet - Stranj.wav" WAVE    INDEX 01 00:00:00  TRACK 04 AUDIO    TITLE "When?"    PERFORMER "Green Velvet"    REM COMPOSER ""    FLAGS DCP    INDEX 00 04:52:56FILE "04. Green Velvet - When.wav" WAVE    INDEX 01 00:00:00  TRACK 05 AUDIO    TITLE "Sleepwalking"    PERFORMER "Green Velvet"    REM COMPOSER ""    FLAGS DCP    INDEX 00 05:34:28FILE "05. Green Velvet - Sleepwalking.wav" WAVE    INDEX 01 00:00:00FILE "06. Green Velvet - Stop Lyin'.wav" WAVE  TRACK 06 AUDIO    TITLE "Stop Lyin'"    PERFORMER "Green Velvet"    REM COMPOSER ""    FLAGS DCP    INDEX 01 00:00:00  TRACK 07 AUDIO    TITLE "Minimum Rage"    PERFORMER "Green Velvet"    REM COMPOSER ""    FLAGS DCP    INDEX 00 04:38:67FILE "07. Green Velvet - Minimum Rage.wav" WAVE    INDEX 01 00:00:00  TRACK 08 AUDIO    TITLE "GAT (The Great American Tragedy)"    PERFORMER "Green Velvet"    REM COMPOSER ""    FLAGS DCP    INDEX 00 07:05:07FILE "08. Green Velvet - GAT (The Great American Tragedy).wav" WAVE    INDEX 01 00:00:00  TRACK 09 AUDIO    TITLE "Waitin' 4 the Day2end"    PERFORMER "Green Velvet"    REM COMPOSER ""    FLAGS DCP    INDEX 00 03:06:67FILE "09. Green Velvet - Waitin' 4 the Day2end.wav" WAVE    INDEX 01 00:00:00  TRACK 10 AUDIO    TITLE "Dank / Why Try?"    PERFORMER "Green Velvet"    REM COMPOSER ""    FLAGS DCP    INDEX 00 03:26:02FILE "10. Green Velvet - Dank , Why Try.wav" WAVE    INDEX 01 00:00:00
Вы не можете начинать темы
Вы не можете отвечать на сообщения
Вы не можете редактировать свои сообщения
Вы не можете удалять свои сообщения
Вы не можете голосовать в опросах
Вы не можете прикреплять файлы к сообщениям
Вы можете скачивать файлы
!ВНИМАНИЕ!

Сайт не предоставляет электронные версии произведений, а занимается лишь коллекционированием и каталогизацией ссылок, присылаемых и публикуемых на форуме нашими читателями. Если вы являетесь правообладателем какого-либо представленного материала и не желаете, чтобы ссылка на него находилась в нашем каталоге, свяжитесь с нами, и мы незамедлительно удалим ее. Файлы для обмена на трекере предоставлены пользователями сайта, и администрация не несет ответственности за их содержание. Просьба не заливать файлы, защищенные авторскими правами, а также файлы нелегального содержания!

Искали программы, игры, дополнения, музыка mp3, аниме, аудио книги, журналы? Добро пожаловать на свободный торрент трекер Torrents, у нас можно скачать бесплатно, без смс и регистрации и прочих ограничений лучшие, отборные сборки программ, игр. Скачать торрентом не составит труда даже не опытному пользователю. Раздачи ежедневно обновляются, только лучшие и качественные раздачи, подробные описания и скриншоты. Огромная коллекция программ для работы со звуком, графикой, дизайном, а так же множество плагинов и инструментов к ним с подробной инструкцией и рекомендациями. Прошивки для навигаторов, карты. Разнообразные игры, для Windows, Linux. В коллекцие есть и старые игры любых жанров, Rpg, Action, Shooter, strategy Множество дополнений, модификаций, сценариев для популярных игр в жанре экш, рпг, гонки, стратегии, логические игры. Множество аддонов и сценариев для Microsoft Flight Simulator Большая коллекция книг, учебников. Если нет возможности купить печатное издание - смело скачивайте цифровую версию книги или, быть может, журнала. Не любите читать - можно загрузить бесплатно аудикнигу. Для веб дизайнеров и программистов так же найдется множество специализированного софта, таких как: редакторы с подсветкой, среды программирования, компоненты, системы управления базами данных, разнообразные скрипты и шаблоны. Не так давно у нас появился материал для автолюбителей и владельцев мото - оригинальные и неоригинальные каталоги запчастей, книги и журналы по ремонту и обслуживанию, видеоуроки, статьи по чип тюнингу, прошивкам. Процедура получения контента элементарная, достаточно просто скачать торрент файл и добавить его в загрузку в вашем торрент клиенте. Если у вас нет специального торрент клиента, вы можете его скачать у нас.