(Melodic Rock, AOR) [CD] Airrace – Untold Stories - 2018, FLAC (tracks+.cue), lossless 

Цитировать
Airrace – Untold Stories
Жанр: Melodic Rock, AOR
Страна-производитель диска: RU (Unofficial Release)
Год издания диска: 2018
Издатель (лейбл): Frontiers RecordsFR
Номер по каталогу: CD 871
Страна: UK
Аудиокодек: FLAC (*.flac)
Тип рипа: tracks+.cue
Битрейт аудио: lossless
Продолжительность: 00:44:10
Источник (релизер): Sket4er
Наличие сканов в содержимом раздачи: да
Треклист:
01. Running Out Of Time
02. Innocent
03. Eyes Like Ice
04. Different But The Same
05. New Skin
06. Lost
07. Love Is Love
08. Men From The Boys
09. Summer Rain
10. Come With Us
11. Here It Comes

Лог создания рипа

Exact Audio Copy V1.3 from 2. September 2016
EAC extraction logfile from 9. October 2018, 9:56
Airrace / Untold Stories
Used drive : TSSTcorpCDDVDW SH-224DB Adapter: 1 ID: 0
Read mode : SecureUtilize accurate stream : YesDefeat audio cache : YesMake use of C2 pointers : No
Read offset correction : 6Overread into Lead-In and Lead-Out : NoFill up missing offset samples with silence : YesDelete leading and trailing silent blocks : NoNull samples used in CRC calculations : YesUsed interface : Native Win32 interface for Win NT & 2000Gap handling : Appended to previous track
Used output format : User Defined EncoderSelected bitrate : 1024 kBit/sQuality : HighAdd ID3 tag : NoCommand line compressor : C:\Program Files (x86)\Exact Audio Copy\win64\flac.exeAdditional command line options : -8 -V -T "ARTIST=%artist%" -T "TITLE=%title%" -T "ALBUM=%albumtitle%" -T "DATE=%year%" -T "TRACKNUMBER=%tracknr%" -T "GENRE=%genre%" -T "COMMENT=%comment%" %source% -o %dest%
TOC of the extracted CD
Track | Start | Length | Start sector | End sector --------------------------------------------------------- 1 | 0:00.00 | 4:32.48 | 0 | 20447 2 | 4:32.48 | 3:30.25 | 20448 | 36222 3 | 8:02.73 | 4:01.44 | 36223 | 54341 4 | 12:04.42 | 4:03.43 | 54342 | 72609 5 | 16:08.10 | 3:31.28 | 72610 | 88462 6 | 19:39.38 | 4:29.45 | 88463 | 108682 7 | 24:09.08 | 4:20.58 | 108683 | 128240 8 | 28:29.66 | 4:01.24 | 128241 | 146339 9 | 32:31.15 | 4:27.49 | 146340 | 166413 10 | 36:58.64 | 3:52.10 | 166414 | 183823 11 | 40:50.74 | 3:18.21 | 183824 | 198694
Track 1
Filename F:\Sket4er\Airrace – Untold Stories 2018\01 Running Out Of Time.wav
Pre-gap length 0:00:02.00
Peak level 100.0 % Extraction speed 2.0 X Track quality 100.0 % Test CRC E70A987A Copy CRC 7798547C Cannot be verified as accurate (confidence 3) [AA1B1F17], AccurateRip returned [107567A1] (AR v2) Copy OK
Track 2
Filename F:\Sket4er\Airrace – Untold Stories 2018\02 Innocent.wav
Peak level 100.0 % Extraction speed 1.7 X Track quality 99.9 % Test CRC C20A2E23 Copy CRC C20A2E23 Cannot be verified as accurate (confidence 3) [F0877016], AccurateRip returned [B84E9B51] (AR v2) Copy OK
Track 3
Filename F:\Sket4er\Airrace – Untold Stories 2018\03 Eyes Like Ice.wav
Peak level 100.0 % Extraction speed 2.2 X Track quality 100.0 % Test CRC 45AA5179 Copy CRC 45AA5179 Cannot be verified as accurate (confidence 3) [2B1C03DC], AccurateRip returned [602E3012] (AR v2) Copy OK
Track 4
Filename F:\Sket4er\Airrace – Untold Stories 2018\04 Different But The Same.wav
Peak level 100.0 % Extraction speed 2.4 X Track quality 100.0 % Test CRC 00F0A1CC Copy CRC 00F0A1CC Cannot be verified as accurate (confidence 3) [6F44E168], AccurateRip returned [2323206A] (AR v2) Copy OK
Track 5
Filename F:\Sket4er\Airrace – Untold Stories 2018\05 New Skin.wav
Peak level 100.0 % Extraction speed 2.5 X Track quality 100.0 % Test CRC 8F6EF028 Copy CRC 8F6EF028 Cannot be verified as accurate (confidence 3) [1785E008], AccurateRip returned [833A1807] (AR v2) Copy OK
Track 6
Filename F:\Sket4er\Airrace – Untold Stories 2018\06 Lost.wav
Peak level 100.0 % Extraction speed 2.2 X Track quality 99.9 % Test CRC 0DD526D9 Copy CRC 0DD526D9 Cannot be verified as accurate (confidence 3) [0B4730F9], AccurateRip returned [1F192FD7] (AR v2) Copy OK
Track 7
Filename F:\Sket4er\Airrace – Untold Stories 2018\07 Love Is Love.wav
Peak level 100.0 % Extraction speed 2.8 X Track quality 100.0 % Test CRC CF3440B4 Copy CRC CF3440B4 Cannot be verified as accurate (confidence 3) [3372B231], AccurateRip returned [BB525AAF] (AR v2) Copy OK
Track 8
Filename F:\Sket4er\Airrace – Untold Stories 2018\08 Men From The Boys.wav
Peak level 100.0 % Extraction speed 2.4 X Track quality 99.9 % Test CRC B714A551 Copy CRC B714A551 Cannot be verified as accurate (confidence 3) [3CF828C0], AccurateRip returned [7D1C9568] (AR v2) Copy OK
Track 9
Filename F:\Sket4er\Airrace – Untold Stories 2018\09 Summer Rain.wav
Peak level 100.0 % Extraction speed 3.1 X Track quality 100.0 % Test CRC C8BADB30 Copy CRC C8BADB30 Cannot be verified as accurate (confidence 3) [AB1371C3], AccurateRip returned [536C8058] (AR v2) Copy OK
Track 10
Filename F:\Sket4er\Airrace – Untold Stories 2018\10 Come With Us.wav
Peak level 100.0 % Extraction speed 3.1 X Track quality 100.0 % Test CRC 0FA012DF Copy CRC 0FA012DF Cannot be verified as accurate (confidence 3) [DC0F2235], AccurateRip returned [62540CB5] (AR v2) Copy OK
Track 11
Filename F:\Sket4er\Airrace – Untold Stories 2018\11 Here It Comes.wav
Peak level 100.0 % Extraction speed 3.2 X Track quality 100.0 % Test CRC 269F31D3 Copy CRC 269F31D3 Cannot be verified as accurate (confidence 3) [1C0F435E], AccurateRip returned [1CF33D05] (AR v2) Copy OK
No tracks could be verified as accurateYou may have a different pressing from the one(s) in the database
No errors occurred
End of status report
---- CUETools DB Plugin V2.1.6
[CTDB TOCID: tvZ7RlqCBMLANyBnhhbkKJWm_Jk-] foundSubmit result: insufficient qualityTrack | CTDB Status 1 | (3/3) Differs in 48 samples @00:46:34-00:46:35,04:30:42 2 | (3/3) Differs in 10 samples @00:35:72-00:35:73 3 | (3/3) Accurately ripped 4 | (3/3) Accurately ripped 5 | (3/3) Accurately ripped 6 | (3/3) Accurately ripped 7 | (3/3) Accurately ripped 8 | (3/3) Accurately ripped 9 | (3/3) Accurately ripped 10 | (3/3) Accurately ripped 11 | (3/3) Accurately rippedIf you are sure that your rip contains errors, you can use CUETools to repair it.
==== Log checksum CDA85714B662B6BE591033EA1BA0B39E2547708D56BF05A18D8197D592AA9C1F ====

Содержание индексной карты (.CUE)

REM GENRE RockREM DATE 2018REM DISCID 830A590BREM COMMENT "ExactAudioCopy v1.3"PERFORMER "Airrace"TITLE "Untold Stories"REM COMPOSER ""FILE "01 Running Out Of Time.wav" WAVE  TRACK 01 AUDIO    TITLE "Running Out Of Time"    PERFORMER "Airrace"    REM COMPOSER ""    INDEX 01 00:00:00FILE "02 Innocent.wav" WAVE  TRACK 02 AUDIO    TITLE "Innocent"    PERFORMER "Airrace"    REM COMPOSER ""    INDEX 01 00:00:00FILE "03 Eyes Like Ice.wav" WAVE  TRACK 03 AUDIO    TITLE "Eyes Like Ice"    PERFORMER "Airrace"    REM COMPOSER ""    INDEX 01 00:00:00FILE "04 Different But The Same.wav" WAVE  TRACK 04 AUDIO    TITLE "Different But The Same"    PERFORMER "Airrace"    REM COMPOSER ""    INDEX 01 00:00:00FILE "05 New Skin.wav" WAVE  TRACK 05 AUDIO    TITLE "New Skin"    PERFORMER "Airrace"    REM COMPOSER ""    INDEX 01 00:00:00FILE "06 Lost.wav" WAVE  TRACK 06 AUDIO    TITLE "Lost"    PERFORMER "Airrace"    REM COMPOSER ""    INDEX 01 00:00:00FILE "07 Love Is Love.wav" WAVE  TRACK 07 AUDIO    TITLE "Love Is Love"    PERFORMER "Airrace"    REM COMPOSER ""    INDEX 01 00:00:00FILE "08 Men From The Boys.wav" WAVE  TRACK 08 AUDIO    TITLE "Men From The Boys"    PERFORMER "Airrace"    REM COMPOSER ""    INDEX 01 00:00:00FILE "09 Summer Rain.wav" WAVE  TRACK 09 AUDIO    TITLE "Summer Rain"    PERFORMER "Airrace"    REM COMPOSER ""    INDEX 01 00:00:00FILE "10 Come With Us.wav" WAVE  TRACK 10 AUDIO    TITLE "Come With Us"    PERFORMER "Airrace"    REM COMPOSER ""    INDEX 01 00:00:00FILE "11 Here It Comes.wav" WAVE  TRACK 11 AUDIO    TITLE "Here It Comes"    PERFORMER "Airrace"    REM COMPOSER ""    INDEX 01 00:00:00

Лог проверки качества

-----------------------
DON'T MODIFY THIS FILE
-----------------------
PERFORMER: auCDtect Task Manager, ver. 1.5.1RC4 build 1.5.1.5Copyright (c) 2008-2010 y-soft. All rights reservedhttp://y-soft.org
ANALYZER: auCDtect: CD records authenticity detector, version 0.8.2Copyright (c) 2004 Oleg Berngardt. All rights reserved.Copyright (c) 2004 Alexander Djourik. All rights reserved.
FILE: 11 Here It Comes.flac Size: 26763940 Hash: ACC9561FE8DB2FA31F2EFD73BC000313 Accuracy: -m0 Conclusion: CDDA 100% Signature: B5EE92FA15870F0F5D2BF4045DD113F76629DA85FILE: 10 Come With Us.flac Size: 31201614 Hash: CC99A173DB667FCD2E075DEBFD0D54D9 Accuracy: -m0 Conclusion: CDDA 100% Signature: B66C706E4E33C84EA7BAFCD1914D3BC3067419C2FILE: 09 Summer Rain.flac Size: 36325644 Hash: B04EDAEB2980F9D83E96385426CB1B78 Accuracy: -m0 Conclusion: CDDA 100% Signature: F9F9B480A02D1B1879FE19DDC12FBA3F12189CE2FILE: 08 Men From The Boys.flac Size: 31220517 Hash: 948D6D27996987DA845CD29707F74064 Accuracy: -m0 Conclusion: CDDA 100% Signature: C4D2D569E74464A7EF1CB61743FD30B706F5A64DFILE: 07 Love Is Love.flac Size: 33526881 Hash: 44D9B42F2D2C6E94E8E9FC269C761A69 Accuracy: -m0 Conclusion: CDDA 100% Signature: E64B975DA0617748CFA3868FCAAA68E4092CCF61FILE: 06 Lost.flac Size: 30507977 Hash: 35010E2FE1FF183985FF79BA8E5710EE Accuracy: -m0 Conclusion: CDDA 100% Signature: CB170D6BC7B1F50320AD8542CF3DF6FD299C02DFFILE: 05 New Skin.flac Size: 27518363 Hash: 6AB6E9B26A88048144E4964E6B338D62 Accuracy: -m0 Conclusion: CDDA 100% Signature: 32DFDF4EED8D0711047B28FB1CF8BA8530372C05FILE: 04 Different But The Same.flac Size: 31926243 Hash: 3C0D38C52AB6E18000D8A16FAD8B9574 Accuracy: -m0 Conclusion: CDDA 99% Signature: 0496603236F3496E419D5103CE4D2551A7DC195AFILE: 03 Eyes Like Ice.flac Size: 31845905 Hash: 60A5C33EAAE78534CD214883C77DF2FE Accuracy: -m0 Conclusion: CDDA 100% Signature: B13BBB77139CE8DA0D10342B207372D613FE5053FILE: 02 Innocent.flac Size: 28281427 Hash: 7D012F0D8822745E7B21896EC2D14FA9 Accuracy: -m0 Conclusion: CDDA 99% Signature: 7F59794AF23E14661C331225CA326F41B20C7C54FILE: 01 Running Out Of Time.flac Size: 32828163 Hash: 38B457E284A7AC0376055BC1372D4183 Accuracy: -m0 Conclusion: CDDA 100% Signature: D5B5B2B82665F285FA94E14D7704A7A2972B7727

DR log

foobar2000 1.3.9 / Замер динамического диапазона (DR) 1.1.1Дата отчёта:  2018-10-19 16:38:27
--------------------------------------------------------------------------------Анализ: Airrace / Untold Stories--------------------------------------------------------------------------------
DR Пики RMS Продолжительность трека--------------------------------------------------------------------------------DR6 0.00 дБ -7.83 дБ 4:33 01-Running Out Of TimeDR6 0.00 дБ -7.07 дБ 3:30 02-InnocentDR6 0.00 дБ -7.12 дБ 4:02 03-Eyes Like IceDR6 0.00 дБ -7.16 дБ 4:04 04-Different But The SameDR6 0.00 дБ -7.01 дБ 3:31 05-New SkinDR8 0.00 дБ -9.85 дБ 4:30 06-LostDR6 0.00 дБ -7.46 дБ 4:21 07-Love Is LoveDR6 0.00 дБ -7.40 дБ 4:01 08-Men From The BoysDR6 0.00 дБ -7.32 дБ 4:28 09-Summer RainDR6 0.00 дБ -7.06 дБ 3:52 10-Come With UsDR6 0.00 дБ -7.05 дБ 3:18 11-Here It Comes--------------------------------------------------------------------------------
Количество треков: 11Реальные значения DR: DR6
Частота: 44100 ГцКаналов: 2Разрядность: 16Битрейт: 1076 кбит/сКодек: FLAC================================================================================
Доп. информация

Состав

Adam Payne - Vocals
Laurie Mansworth - Guitar
Rocky Newton - Bass
Dhani Mansworth - Drums
Linda Kelsey Foster - Keys
Вы не можете начинать темы
Вы не можете отвечать на сообщения
Вы не можете редактировать свои сообщения
Вы не можете удалять свои сообщения
Вы не можете голосовать в опросах
Вы не можете прикреплять файлы к сообщениям
Вы можете скачивать файлы
!ВНИМАНИЕ!

Сайт не предоставляет электронные версии произведений, а занимается лишь коллекционированием и каталогизацией ссылок, присылаемых и публикуемых на форуме нашими читателями. Если вы являетесь правообладателем какого-либо представленного материала и не желаете, чтобы ссылка на него находилась в нашем каталоге, свяжитесь с нами, и мы незамедлительно удалим ее. Файлы для обмена на трекере предоставлены пользователями сайта, и администрация не несет ответственности за их содержание. Просьба не заливать файлы, защищенные авторскими правами, а также файлы нелегального содержания!

Искали программы, игры, дополнения, музыка mp3, аниме, аудио книги, журналы? Добро пожаловать на свободный торрент трекер Torrents, у нас можно скачать бесплатно, без смс и регистрации и прочих ограничений лучшие, отборные сборки программ, игр. Скачать торрентом не составит труда даже не опытному пользователю. Раздачи ежедневно обновляются, только лучшие и качественные раздачи, подробные описания и скриншоты. Огромная коллекция программ для работы со звуком, графикой, дизайном, а так же множество плагинов и инструментов к ним с подробной инструкцией и рекомендациями. Прошивки для навигаторов, карты. Разнообразные игры, для Windows, Linux. В коллекцие есть и старые игры любых жанров, Rpg, Action, Shooter, strategy Множество дополнений, модификаций, сценариев для популярных игр в жанре экш, рпг, гонки, стратегии, логические игры. Множество аддонов и сценариев для Microsoft Flight Simulator Большая коллекция книг, учебников. Если нет возможности купить печатное издание - смело скачивайте цифровую версию книги или, быть может, журнала. Не любите читать - можно загрузить бесплатно аудикнигу. Для веб дизайнеров и программистов так же найдется множество специализированного софта, таких как: редакторы с подсветкой, среды программирования, компоненты, системы управления базами данных, разнообразные скрипты и шаблоны. Не так давно у нас появился материал для автолюбителей и владельцев мото - оригинальные и неоригинальные каталоги запчастей, книги и журналы по ремонту и обслуживанию, видеоуроки, статьи по чип тюнингу, прошивкам. Процедура получения контента элементарная, достаточно просто скачать торрент файл и добавить его в загрузку в вашем торрент клиенте. Если у вас нет специального торрент клиента, вы можете его скачать у нас.