(Hard Psych Blues Rock) [CD] Pulse - Pulse - 1969 (Fallout UK 2007), FLAC (image+.cue), lossless 

Цитировать
Pulse - Pulse
Жанр: Hard Psych Blues Rock
Страна-производитель диска: UK
Год издания диска: 2007 (Unofficial Release)
Издатель (лейбл): Fallout
Номер по каталогу: FOCD 2022
Страна: USA
Аудиокодек: FLAC (*.flac)
Тип рипа: image+.cue
Битрейт аудио: lossless
Продолжительность: 00:41:37
Источник (релизер): Sket4er
Наличие сканов в содержимом раздачи: да
Треклист:
01. Too Much Lovin' 03:00
02. Another Woman 07:00
03. Hypnotized 04:13
04. Thanks For Thinking of Me 03:35
05. Lo-Down 03:35
06. She's Killin' Me 03:28
07. Garden Of Love 03:18
08. Amassilation 05:26
09. My Old Boy 02:14
Bonus Tracks:
10. Can Can Girl 02:45
11. Burritt Bradley 02:57

Лог создания рипа

Exact Audio Copy V1.3 from 2. September 2016
EAC extraction logfile from 13. October 2018, 19:31
Pulse / Pulse
Used drive : TSSTcorpCDDVDW SH-224DB Adapter: 1 ID: 0
Read mode : SecureUtilize accurate stream : YesDefeat audio cache : YesMake use of C2 pointers : No
Read offset correction : 6Overread into Lead-In and Lead-Out : NoFill up missing offset samples with silence : YesDelete leading and trailing silent blocks : NoNull samples used in CRC calculations : YesUsed interface : Native Win32 interface for Win NT & 2000
Used output format : User Defined EncoderSelected bitrate : 1024 kBit/sQuality : HighAdd ID3 tag : NoCommand line compressor : C:\Program Files (x86)\Exact Audio Copy\win64\flac.exeAdditional command line options : -8 -V -T "ARTIST=%artist%" -T "TITLE=%title%" -T "ALBUM=%albumtitle%" -T "DATE=%year%" -T "TRACKNUMBER=%tracknr%" -T "GENRE=%genre%" -T "COMMENT=%comment%" %source% -o %dest%
TOC of the extracted CD
Track | Start | Length | Start sector | End sector --------------------------------------------------------- 1 | 0:00.00 | 3:00.36 | 0 | 13535 2 | 3:00.36 | 7:00.17 | 13536 | 45052 3 | 10:00.53 | 4:13.25 | 45053 | 64052 4 | 14:14.03 | 3:35.23 | 64053 | 80200 5 | 17:49.26 | 3:35.18 | 80201 | 96343 6 | 21:24.44 | 3:28.38 | 96344 | 111981 7 | 24:53.07 | 3:18.11 | 111982 | 126842 8 | 28:11.18 | 5:26.56 | 126843 | 151348 9 | 33:37.74 | 2:14.74 | 151349 | 161472 10 | 35:52.73 | 2:45.72 | 161473 | 173919 11 | 38:38.70 | 2:57.48 | 173920 | 187242
Range status and errors
Selected range
Filename F:\Sket4er\Pulse – Pulse (1968) 2007\Pulse - Pulse.wav
Peak level 98.7 % Extraction speed 2.9 X Range quality 100.0 % Test CRC DAD4E110 Copy CRC DAD4E110 Copy OK
No errors occurred
AccurateRip summary
Track 1 cannot be verified as accurate (confidence 1) [D0998455], AccurateRip returned [1935FEF4] (AR v2)Track 2 cannot be verified as accurate (confidence 1) [8AF2FD11], AccurateRip returned [A77E4546] (AR v2)Track 3 cannot be verified as accurate (confidence 1) [C99AF3FC], AccurateRip returned [04552EF2] (AR v2)Track 4 cannot be verified as accurate (confidence 1) [008E753B], AccurateRip returned [3032AFDD] (AR v2)Track 5 cannot be verified as accurate (confidence 1) [F7AB2007], AccurateRip returned [D17D2FE9] (AR v2)Track 6 cannot be verified as accurate (confidence 1) [B8474495], AccurateRip returned [8DEB23AE] (AR v2)Track 7 cannot be verified as accurate (confidence 1) [1F1C111C], AccurateRip returned [9FE87A9C] (AR v2)Track 8 cannot be verified as accurate (confidence 1) [85BCB920], AccurateRip returned [594F7446] (AR v2)Track 9 cannot be verified as accurate (confidence 1) [3EBBEFE3], AccurateRip returned [1D7FA0E2] (AR v2)Track 10 cannot be verified as accurate (confidence 1) [05990745], AccurateRip returned [BF0937FA] (AR v2)Track 11 cannot be verified as accurate (confidence 1) [DB9F7213], AccurateRip returned [D6A2798C] (AR v2)
No tracks could be verified as accurateYou may have a different pressing from the one(s) in the database
End of status report
---- CUETools DB Plugin V2.1.6
[CTDB TOCID: g3XOtHLVUIxySsIPDa.AdSIcezI-] foundSubmit result: g3XOtHLVUIxySsIPDa.AdSIcezI- has been confirmedTrack | CTDB Status 1 | (2/2) Accurately ripped 2 | (2/2) Accurately ripped 3 | (2/2) Accurately ripped 4 | (2/2) Accurately ripped 5 | (2/2) Accurately ripped 6 | (2/2) Accurately ripped 7 | (2/2) Accurately ripped 8 | (2/2) Accurately ripped 9 | (2/2) Accurately ripped 10 | (2/2) Accurately ripped 11 | (2/2) Accurately ripped
==== Log checksum 172DEC4C516D39E43BD7D30C7048F1B192C8835048A2C501AF874FF6A79597DD ====

Содержание индексной карты (.CUE)

REM GENRE RockREM DATE 1968REM DISCID 8709C00BREM COMMENT "ExactAudioCopy v1.3"PERFORMER "Pulse "TITLE "Pulse "REM COMPOSER ""FILE "Pulse  - Pulse.flac" WAVE  TRACK 01 AUDIO    TITLE "Too Much Lovin'"    PERFORMER "Pulse "    REM COMPOSER ""    INDEX 01 00:00:00  TRACK 02 AUDIO    TITLE "Another Woman"    PERFORMER "Pulse "    REM COMPOSER ""    INDEX 01 03:00:36  TRACK 03 AUDIO    TITLE "Hypnotized"    PERFORMER "Pulse "    REM COMPOSER ""    INDEX 01 10:00:53  TRACK 04 AUDIO    TITLE "Thanks For Thinking Of Me"    PERFORMER "Pulse "    REM COMPOSER ""    INDEX 01 14:14:03  TRACK 05 AUDIO    TITLE "Lo-Down"    PERFORMER "Pulse "    REM COMPOSER ""    INDEX 01 17:49:26  TRACK 06 AUDIO    TITLE "She's Killin' Me"    PERFORMER "Pulse "    REM COMPOSER ""    INDEX 00 21:24:43    INDEX 01 21:24:44  TRACK 07 AUDIO    TITLE "Garden Of Love"    PERFORMER "Pulse "    REM COMPOSER ""    INDEX 01 24:53:07  TRACK 08 AUDIO    TITLE "Amassilation"    PERFORMER "Pulse "    REM COMPOSER ""    INDEX 01 28:11:18  TRACK 09 AUDIO    TITLE "My Old Boy"    PERFORMER "Pulse "    REM COMPOSER ""    INDEX 01 33:37:74  TRACK 10 AUDIO    TITLE "Can Can Girl (Bonus Track)"    PERFORMER "Pulse "    REM COMPOSER ""    INDEX 01 35:52:73  TRACK 11 AUDIO    TITLE "Burritt Bradley (Bonus Track)"    PERFORMER "Pulse "    REM COMPOSER ""    INDEX 01 38:38:70

Лог проверки качества

-----------------------
DON'T MODIFY THIS FILE
-----------------------
PERFORMER: auCDtect Task Manager, ver. 1.5.1RC4 build 1.5.1.5Copyright (c) 2008-2010 y-soft. All rights reservedhttp://y-soft.org
ANALYZER: auCDtect: CD records authenticity detector, version 0.8.2Copyright (c) 2004 Oleg Berngardt. All rights reserved.Copyright (c) 2004 Alexander Djourik. All rights reserved.
FILE: Pulse - Pulse.flac Size: 237520799 Hash: AB221F867E0D9B529BE8A52725E79089 Accuracy: -m0 Conclusion: CDDA 100% Signature: 0432160057FAFC2D5237DCF1DA69E6BC06E3E48B

DR log

foobar2000 1.3.9 / Замер динамического диапазона (DR) 1.1.1Дата отчёта:  2018-10-24 16:23:00
--------------------------------------------------------------------------------Анализ: Pulse / Pulse--------------------------------------------------------------------------------
DR Пики RMS Продолжительность трека--------------------------------------------------------------------------------DR13 -0.12 дБ -14.65 дБ 3:00 1-Too Much Lovin'DR12 -0.12 дБ -14.20 дБ 7:00 2-Another WomanDR12 -0.67 дБ -15.76 дБ 4:13 3-HypnotizedDR13 -1.07 дБ -17.36 дБ 3:35 4-Thanks For Thinking Of MeDR11 -0.12 дБ -12.98 дБ 3:35 5-Lo-DownDR12 -0.12 дБ -13.88 дБ 3:29 6-She's Killin' MeDR15 -0.12 дБ -17.77 дБ 3:18 7-Garden Of LoveDR12 -0.11 дБ -14.76 дБ 5:27 8-AmassilationDR12 -0.11 дБ -12.78 дБ 2:15 9-My Old BoyDR11 -0.12 дБ -13.06 дБ 2:46 10-Can Can Girl (Bonus Track)DR11 -1.86 дБ -18.04 дБ 2:58 11-Burritt Bradley (Bonus Track)--------------------------------------------------------------------------------
Количество треков: 11Реальные значения DR: DR12
Частота: 44100 ГцКаналов: 2Разрядность: 16Битрейт: 761 кбит/сКодек: FLAC================================================================================
Доп. информация

Состав

Paul Rosanno - bass 
Jeff Potter - harmonica
Richard Bednarzcyk - keyboards
Carl Donnell - vocals 
Peter Neri - guitar, vocals 
Bennett Segal - drums

Об исполнителе

Летом 1967 под давлением продюсера Doc Cavalier, который хотел из двух групп собрать более сильный состав, распались две популярные банды из Нью-Хейвена - The Shags и Bram Rigg Set. По трое участников из каждой основали костяк The Pulse Of Burritt Bradley (из The Shags: Carl Donnell - vocals, guitar; Tommy Roberts – vocals, guitar; Lance Gardiner – bass, из Bram Rigg Set: Bennet Segal – drums; Peter Neri – guitar; Rich Bednarcyk - keyboards). В таком составе они записывают один неудачный сингл на ATCO и просуществовав ещё около 6 месяцев меняют состав и сокращают название до The Pulse. В январе 1968 The Pulse всерьёз берутся за репетиции, готовят материал для записи альбома и дают небольшие концерты. Надо сказать, что репетировали они в экстремальных условиях на заднем дворе Syncron Studios (владелец всё тот же Doc Cavalier) в недостройке 2 на 4 метра, которую сами называли «Shed» («Навес»). Опасность заключалась в том, что потолок «Навеса» был всего на фут выше головы. Да и вообще как такового потолка там не было, вместо него шли силовые кабеля с изоляцией и случись так, что задев грифом потолок в то же время коснешься струн – получишь удар током. Тем не менее парни продолжали упорно репетировать. Спустя какое-то время к ним присоединился Jeff Potter и с ним команда обрела наконец свое звучание а-ля Cream. В 1969 году выходит их первенец «The Pulse» и они становятся знаменитостями в Коннектикуте.
http://www.allmusic.com/album/release/pulse-mr0000576744
http://murodoclassicrock4.blogspot.com/2010/12/pulse-1969.html
Вы не можете начинать темы
Вы не можете отвечать на сообщения
Вы не можете редактировать свои сообщения
Вы не можете удалять свои сообщения
Вы не можете голосовать в опросах
Вы не можете прикреплять файлы к сообщениям
Вы можете скачивать файлы
!ВНИМАНИЕ!

Сайт не предоставляет электронные версии произведений, а занимается лишь коллекционированием и каталогизацией ссылок, присылаемых и публикуемых на форуме нашими читателями. Если вы являетесь правообладателем какого-либо представленного материала и не желаете, чтобы ссылка на него находилась в нашем каталоге, свяжитесь с нами, и мы незамедлительно удалим ее. Файлы для обмена на трекере предоставлены пользователями сайта, и администрация не несет ответственности за их содержание. Просьба не заливать файлы, защищенные авторскими правами, а также файлы нелегального содержания!

Искали программы, игры, дополнения, музыка mp3, аниме, аудио книги, журналы? Добро пожаловать на свободный торрент трекер Torrents, у нас можно скачать бесплатно, без смс и регистрации и прочих ограничений лучшие, отборные сборки программ, игр. Скачать торрентом не составит труда даже не опытному пользователю. Раздачи ежедневно обновляются, только лучшие и качественные раздачи, подробные описания и скриншоты. Огромная коллекция программ для работы со звуком, графикой, дизайном, а так же множество плагинов и инструментов к ним с подробной инструкцией и рекомендациями. Прошивки для навигаторов, карты. Разнообразные игры, для Windows, Linux. В коллекцие есть и старые игры любых жанров, Rpg, Action, Shooter, strategy Множество дополнений, модификаций, сценариев для популярных игр в жанре экш, рпг, гонки, стратегии, логические игры. Множество аддонов и сценариев для Microsoft Flight Simulator Большая коллекция книг, учебников. Если нет возможности купить печатное издание - смело скачивайте цифровую версию книги или, быть может, журнала. Не любите читать - можно загрузить бесплатно аудикнигу. Для веб дизайнеров и программистов так же найдется множество специализированного софта, таких как: редакторы с подсветкой, среды программирования, компоненты, системы управления базами данных, разнообразные скрипты и шаблоны. Не так давно у нас появился материал для автолюбителей и владельцев мото - оригинальные и неоригинальные каталоги запчастей, книги и журналы по ремонту и обслуживанию, видеоуроки, статьи по чип тюнингу, прошивкам. Процедура получения контента элементарная, достаточно просто скачать торрент файл и добавить его в загрузку в вашем торрент клиенте. Если у вас нет специального торрент клиента, вы можете его скачать у нас.