Энеида / Енеїда (Владимир Дахно) [1991, анимация, сатира, экранизация, DVDRip] UKR, rus sub 

Цитировать
Энеида / Енеїда- Год выпуска: 1991
Страна: СССР / Украина
Жанр: анимация, сатира, экранизация
Продолжительность: 01:08:35
Перевод: Субтитры
Русские субтитры: есть- Режиссер: Владимир Дахно
Текст читает: А. Подубинський-Описание: По мотивам одноименной поэмы И. П. Котляревского «Энеида».
Эней за время своего путешествия успел побывать и в раю и в аду. Но везде он оставался настоящим казаком, способным с честью выйти из любой ситуации.-Ссылка по теме: http://ru.wikipedia.org/wiki/Котляревский,_Иван_Петрович-Доп. информация: сделано из DVD5. За рип спасибо Nyc-2008. Видео подверглось небольшой чистке от царапин.-Релиз группы: -Качество: DVDRip
Формат: AVI
Видео: 704x544 (1.29:1), 25 fps, XviD MPEG-4 ~2393 kbps avg, 0.25 bit/pixel
Аудио: Украинский (48 kHz, AC3 Dolby Digital, 2/0 (L,R) ch, ~192 kbps)
Субтитры:
1. русские [в переводе Бражнина Ильи Яковлевича, 1953 г.]
2. русские [в переводе Веры Аркадьевны Потаповой, 1961 г.]
вложены в раздачу отдельными *.srt файлами (SubRip format)

MediaInfo

General
Complete name : E:\VIDEO_Mult\Eneyida\Eneyida.1991.avi
Format : AVI
Format/Info : Audio Video Interleave
File size : 1.24 GiB
Duration : 1h 8mn
Overall bit rate : 2 595 Kbps
Writing application : VirtualDubMod 1.5.10.2 (build 2542/release)
Comment : Nyc-2008 / RG Multfilmy / rutracker.org
Video
ID : 0
Format : MPEG-4 Visual
Format profile : Advanced Simple@L5
Format settings, BVOP : 2
Format settings, QPel : No
Format settings, GMC : No warppoints
Format settings, Matrix : Custom
Muxing mode : Packed bitstream
Codec ID : XVID
Codec ID/Hint : XviD
Duration : 1h 8mn
Bit rate : 2 394 Kbps
Width : 704 pixels
Height : 544 pixels
Display aspect ratio : 1.294
Frame rate : 25.000 fps
Color space : YUV
Chroma subsampling : 4:2:0
Bit depth : 8 bits
Scan type : Progressive
Compression mode : Lossy
Bits/(Pixel*Frame) : 0.250
Stream size : 1.15 GiB (92%)
Writing library : XviD 1.2.1 (UTC 2008-12-04)
Audio
ID : 1
Format : AC-3
Format/Info : Audio Coding 3
Mode extension : CM (complete main)
Codec ID : 2000
Duration : 1h 8mn
Bit rate mode : Constant
Bit rate : 192 Kbps
Channel(s) : 2 channels
Channel positions : Front: L R
Sampling rate : 48.0 KHz
Bit depth : 16 bits
Compression mode : Lossy
Stream size : 94.2 MiB (7%)
Alignment : Split accross interleaves
Interleave, duration : 40 ms (1.00 video frame)
Interleave, preload duration : 500 ms
Вы не можете начинать темы
Вы не можете отвечать на сообщения
Вы не можете редактировать свои сообщения
Вы не можете удалять свои сообщения
Вы не можете голосовать в опросах
Вы не можете прикреплять файлы к сообщениям
Вы можете скачивать файлы
!ВНИМАНИЕ!

Сайт не предоставляет электронные версии произведений, а занимается лишь коллекционированием и каталогизацией ссылок, присылаемых и публикуемых на форуме нашими читателями. Если вы являетесь правообладателем какого-либо представленного материала и не желаете, чтобы ссылка на него находилась в нашем каталоге, свяжитесь с нами, и мы незамедлительно удалим ее. Файлы для обмена на трекере предоставлены пользователями сайта, и администрация не несет ответственности за их содержание. Просьба не заливать файлы, защищенные авторскими правами, а также файлы нелегального содержания!

Искали программы, игры, дополнения, музыка mp3, аниме, аудио книги, журналы? Добро пожаловать на свободный торрент трекер Torrents, у нас можно скачать бесплатно, без смс и регистрации и прочих ограничений лучшие, отборные сборки программ, игр. Скачать торрентом не составит труда даже не опытному пользователю. Раздачи ежедневно обновляются, только лучшие и качественные раздачи, подробные описания и скриншоты. Огромная коллекция программ для работы со звуком, графикой, дизайном, а так же множество плагинов и инструментов к ним с подробной инструкцией и рекомендациями. Прошивки для навигаторов, карты. Разнообразные игры, для Windows, Linux. В коллекцие есть и старые игры любых жанров, Rpg, Action, Shooter, strategy Множество дополнений, модификаций, сценариев для популярных игр в жанре экш, рпг, гонки, стратегии, логические игры. Множество аддонов и сценариев для Microsoft Flight Simulator Большая коллекция книг, учебников. Если нет возможности купить печатное издание - смело скачивайте цифровую версию книги или, быть может, журнала. Не любите читать - можно загрузить бесплатно аудикнигу. Для веб дизайнеров и программистов так же найдется множество специализированного софта, таких как: редакторы с подсветкой, среды программирования, компоненты, системы управления базами данных, разнообразные скрипты и шаблоны. Не так давно у нас появился материал для автолюбителей и владельцев мото - оригинальные и неоригинальные каталоги запчастей, книги и журналы по ремонту и обслуживанию, видеоуроки, статьи по чип тюнингу, прошивкам. Процедура получения контента элементарная, достаточно просто скачать торрент файл и добавить его в загрузку в вашем торрент клиенте. Если у вас нет специального торрент клиента, вы можете его скачать у нас.