(Melodic Hard Rock) [CD] Europe - Best Of Europe [Japan, VICP-98, 1990] - 1990, FLAC (image+.cue), lossless 

Цитировать
Europe - Best Of Europe
Жанр: Melodic Hard Rock
Носитель: CD
Страна-производитель диска (релиза): Япония
Год издания: 1990
Издатель (лейбл): HOT/VICTOR
Номер по каталогу: VICP-98
Страна исполнителя (группы): Швеция
Аудиокодек: FLAC (*.flac)
Тип рипа: image+.cue
Битрейт аудио: lossless
Продолжительность: 75:43
Источник (релизер): Собственный рип
Наличие сканов в содержимом раздачи: да
Треклист:
1. Seven Doors Hotel (05:17)
2. In The Future To Come (05:01)
3. Paradize Bay (03:54)
4. Stormwind (04:30)
5. Scream Of Anger (04:06)
6. Open Your Heart (04:12)
7. Aphasia (02:31)
8. Wings Of Tomorrow (04:00)
9. Dreamer (04:29)
10. On Broken Wings (03:48)
11. The Final Countdown (05:11)
12. Rock The Night (04:05)
13. Carrie (04:33)
14. Cherokee (04:15)
15. Superstitious (04:35)
16. Let Good Times Rock (04:04)
17. Ready Or Not (04:06)
18. Tomorrow (03:07)

Лог создания рипа

Exact Audio Copy V1.0 beta 3 from 29. August 2011
Отчёт EAC об извлечении, выполненном 14. декабря 2012, 12:32
Europe / Best Of Europe [VICP-98]
Дисковод: TSSTcorpCDDVDW SH-224BB Adapter: 0 ID: 1
Режим чтения : ДостоверностьИспользование точного потока : ДаОтключение кэша аудио : ДаИспользование указателей C2 : Нет
Коррекция смещения при чтении : 6Способность читать области Lead-in и Lead-out : НетЗаполнение пропущенных сэмплов тишиной : ДаУдаление блоков с тишиной в начале и конце : НетПри вычислениях CRC использовались нулевые сэмплы : ДаИнтерфейс : Встроенный Win32-интерфейс для Win NT/2000
Выходной формат : Пользовательский кодировщикВыбранный битрейт : 128 kBit/sКачество : ВысокийДобавление ID3-тега : НетУтилита сжатия : C:\Program Files\Exact Audio Copy\Flac\flac.exeДополнительные параметры : -V -8 -T "Date=%year%" -T "Genre=%genre%" %source%
TOC извлечённого CD
Трек | Старт | Длительность | Начальный сектор | Конечный сектор --------------------------------------------------------------------- 1 | 0:00.37 | 5:16.38 | 37 | 23774 2 | 5:17.00 | 5:01.00 | 23775 | 46349 3 | 10:18.00 | 3:53.40 | 46350 | 63864 4 | 14:11.40 | 4:30.00 | 63865 | 84114 5 | 18:41.40 | 4:06.15 | 84115 | 102579 6 | 22:47.55 | 4:12.25 | 102580 | 121504 7 | 27:00.05 | 2:30.52 | 121505 | 132806 8 | 29:30.57 | 3:59.38 | 132807 | 150769 9 | 33:30.20 | 4:28.60 | 150770 | 170929 10 | 37:59.05 | 3:47.47 | 170930 | 188001 11 | 41:46.52 | 5:11.00 | 188002 | 211326 12 | 46:57.52 | 4:05.08 | 211327 | 229709 13 | 51:02.60 | 4:33.22 | 229710 | 250206 14 | 55:36.07 | 4:15.25 | 250207 | 269356 15 | 59:51.32 | 4:35.10 | 269357 | 289991 16 | 64:26.42 | 4:04.08 | 289992 | 308299 17 | 68:30.50 | 4:06.00 | 308300 | 326749 18 | 72:36.50 | 3:06.42 | 326750 | 340741
Характеристики диапазона извлечения и сообщения об ошибках
Выбранный диапазон
Имя файла C:\Music\Europe\1990 Best Of Europe\Europe - Best Of Europe [VICP-98].wav
Пиковый уровень 100.0 % Скорость извлечения 2.4 X Качество диапазона 100.0 % CRC теста D0CD55B6 CRC копии D0CD55B6 Копирование... OK
Ошибок не произошло
AccurateRip: сводка
Трек 1 : извлечено точно (доверие 2) [D7E3B9B2] (AR v1)Трек 2 : извлечено точно (доверие 2) [A70C827F] (AR v1)Трек 3 : извлечено точно (доверие 2) [6D8DA4B2] (AR v1)Трек 4 : извлечено точно (доверие 2) [2D61A155] (AR v1)Трек 5 : извлечено точно (доверие 2) [B9DB0FFD] (AR v1)Трек 6 : извлечено точно (доверие 2) [F534BEF8] (AR v1)Трек 7 : извлечено точно (доверие 2) [4585DC86] (AR v1)Трек 8 : извлечено точно (доверие 2) [759C16FA] (AR v1)Трек 9 : извлечено точно (доверие 2) [40AB08DC] (AR v1)Трек 10 : извлечено точно (доверие 2) [44700A2A] (AR v1)Трек 11 : извлечено точно (доверие 2) [F346A6DF] (AR v1)Трек 12 : извлечено точно (доверие 2) [3F4390BF] (AR v1)Трек 13 : извлечено точно (доверие 2) [00546E0D] (AR v1)Трек 14 : извлечено точно (доверие 2) [7473E6DB] (AR v1)Трек 15 : извлечено точно (доверие 2) [BD0574E3] (AR v1)Трек 16 : извлечено точно (доверие 2) [8DC20167] (AR v1)Трек 17 : извлечено точно (доверие 2) [7D5D6695] (AR v1)Трек 18 : извлечено точно (доверие 2) [0B942C9C] (AR v1)
Все треки извлечены точно
Конец отчёта
==== Контрольная сумма отчёта 81747E0DDF6C33F29EC780DCC4604DD0366E50DB8C7E275C7C90E0D98EFF962F ====
Вы не можете начинать темы
Вы не можете отвечать на сообщения
Вы не можете редактировать свои сообщения
Вы не можете удалять свои сообщения
Вы не можете голосовать в опросах
Вы не можете прикреплять файлы к сообщениям
Вы можете скачивать файлы
!ВНИМАНИЕ!

Сайт не предоставляет электронные версии произведений, а занимается лишь коллекционированием и каталогизацией ссылок, присылаемых и публикуемых на форуме нашими читателями. Если вы являетесь правообладателем какого-либо представленного материала и не желаете, чтобы ссылка на него находилась в нашем каталоге, свяжитесь с нами, и мы незамедлительно удалим ее. Файлы для обмена на трекере предоставлены пользователями сайта, и администрация не несет ответственности за их содержание. Просьба не заливать файлы, защищенные авторскими правами, а также файлы нелегального содержания!

Искали программы, игры, дополнения, музыка mp3, аниме, аудио книги, журналы? Добро пожаловать на свободный торрент трекер Torrents, у нас можно скачать бесплатно, без смс и регистрации и прочих ограничений лучшие, отборные сборки программ, игр. Скачать торрентом не составит труда даже не опытному пользователю. Раздачи ежедневно обновляются, только лучшие и качественные раздачи, подробные описания и скриншоты. Огромная коллекция программ для работы со звуком, графикой, дизайном, а так же множество плагинов и инструментов к ним с подробной инструкцией и рекомендациями. Прошивки для навигаторов, карты. Разнообразные игры, для Windows, Linux. В коллекцие есть и старые игры любых жанров, Rpg, Action, Shooter, strategy Множество дополнений, модификаций, сценариев для популярных игр в жанре экш, рпг, гонки, стратегии, логические игры. Множество аддонов и сценариев для Microsoft Flight Simulator Большая коллекция книг, учебников. Если нет возможности купить печатное издание - смело скачивайте цифровую версию книги или, быть может, журнала. Не любите читать - можно загрузить бесплатно аудикнигу. Для веб дизайнеров и программистов так же найдется множество специализированного софта, таких как: редакторы с подсветкой, среды программирования, компоненты, системы управления базами данных, разнообразные скрипты и шаблоны. Не так давно у нас появился материал для автолюбителей и владельцев мото - оригинальные и неоригинальные каталоги запчастей, книги и журналы по ремонту и обслуживанию, видеоуроки, статьи по чип тюнингу, прошивкам. Процедура получения контента элементарная, достаточно просто скачать торрент файл и добавить его в загрузку в вашем торрент клиенте. Если у вас нет специального торрент клиента, вы можете его скачать у нас.