(Melodic Rock | AOR) [CD] Brad Darrid - Brad Darrid - 1997, FLAC (image+.cue), lossless 

Цитировать
Brad Darrid / Brad Darrid

Жанр: Melodic Rock | AOR
Носитель: CD
Страна-производитель диска (релиза): UK
Год издания: 1997
Издатель (лейбл): Escape Music
Номер по каталогу: ESM016
Страна исполнителя (группы): USA
Аудиокодек: FLAC (*.flac)
Тип рипа: image+.cue
Битрейт аудио: lossless
Продолжительность: 50:52
Источник (релизер): kikel
Наличие сканов в содержимом раздачи: да
Треклист:
01. Coral Stones (3:25)
02. Guilt Trip (3:51)
03. If Loves not enough (5:04)
04. Friday Night (3:34)
05. Broken (4:13)
06. Only One (4:42)
07. Trying to forget (3:38)
08. Misery (5:02)
09. Midnight Train (4:37)
10. Dancing in the Streets (4:00)
11. Given Up (5:18)
12. The Jester, The King (3:27)

Лог создания рипа

Exact Audio Copy V1.3 from 2. September 2016
Отчёт EAC об извлечении, выполненном 6. сентября 2018, 11:25
Brad Darrid / Brad Darrid
Дисковод: HL-DT-STDVDRAM GU40N Adapter: 0 ID: 1
Режим чтения : ДостоверностьИспользование точного потока : ДаОтключение кэша аудио : ДаИспользование указателей C2 : Нет
Коррекция смещения при чтении : 103Способность читать области Lead-in и Lead-out : НетЗаполнение пропущенных сэмплов тишиной : ДаУдаление блоков с тишиной в начале и конце : НетПри вычислениях CRC использовались нулевые сэмплы : ДаИнтерфейс : Установленный внешний ASPI-интерфейс
Выходной формат : Пользовательский кодировщикВыбранный битрейт : 1024 kBit/sКачество : ВысокийДобавление ID3-тега : НетУтилита сжатия : C:\Program Files (x86)\Exact Audio Copy\Flac\flac.exeДополнительные параметры : -V -8 -T "Date=%year%" -T "Genre=%genre%" %source%
TOC извлечённого CD
Трек | Старт | Длительность | Начальный сектор | Конечный сектор --------------------------------------------------------------------- 1 | 0:00.00 | 3:25.09 | 0 | 15383 2 | 3:25.09 | 3:51.25 | 15384 | 32733 3 | 7:16.34 | 5:04.06 | 32734 | 55539 4 | 12:20.40 | 3:33.55 | 55540 | 71569 5 | 15:54.20 | 4:13.28 | 71570 | 90572 6 | 20:07.48 | 4:42.33 | 90573 | 111755 7 | 24:50.06 | 3:37.69 | 111756 | 128099 8 | 28:28.00 | 5:02.03 | 128100 | 150752 9 | 33:30.03 | 4:37.06 | 150753 | 171533 10 | 38:07.09 | 4:00.03 | 171534 | 189536 11 | 42:07.12 | 5:17.70 | 189537 | 213381 12 | 47:25.07 | 3:27.07 | 213382 | 228913
Характеристики диапазона извлечения и сообщения об ошибках
Выбранный диапазон
Имя файла C:\Users\workutagin\Desktop\Brad Darrid - Brad Darrid.wav
Пиковый уровень 98.8 % Скорость извлечения 2.0 X Качество диапазона 100.0 % CRC теста F58B11A2 CRC копии F58B11A2 Копирование... OK
Ошибок не произошло
AccurateRip: сводка
Трек 1 : извлечено точно (доверие 4) [64CFD318] (AR v2)Трек 2 : извлечено точно (доверие 3) [CF037B22] (AR v2)Трек 3 : извлечено точно (доверие 4) [C6552DE5] (AR v2)Трек 4 : извлечено точно (доверие 4) [258B975C] (AR v2)Трек 5 : извлечено точно (доверие 4) [2808DCCE] (AR v2)Трек 6 : извлечено точно (доверие 4) [AA9B7977] (AR v2)Трек 7 : извлечено точно (доверие 4) [0CAA85E8] (AR v2)Трек 8 : извлечено точно (доверие 4) [71247611] (AR v2)Трек 9 : извлечено точно (доверие 4) [5F84DCE7] (AR v2)Трек 10 : извлечено точно (доверие 4) [E1FF5941] (AR v2)Трек 11 : извлечено точно (доверие 4) [EA7AA5C0] (AR v2)Трек 12 : извлечено точно (доверие 4) [71DFDAB7] (AR v2)
Все треки извлечены точно
Конец отчёта
---- CUETools DB Plugin V2.1.6
[CTDB TOCID: hDOxofb_ZjmRDFt.JtdlqOcxuXo-] foundSubmit result: hDOxofb_ZjmRDFt.JtdlqOcxuXo- has been confirmedTrack | CTDB Status 1 | (6/6) Accurately ripped 2 | (5/6) Accurately ripped 3 | (6/6) Accurately ripped 4 | (6/6) Accurately ripped 5 | (6/6) Accurately ripped 6 | (6/6) Accurately ripped 7 | (6/6) Accurately ripped 8 | (6/6) Accurately ripped 9 | (6/6) Accurately ripped 10 | (6/6) Accurately ripped 11 | (6/6) Accurately ripped 12 | (6/6) Accurately ripped
==== Контрольная сумма отчёта 09D63D4702834BD427AF55B849483CD048025ED3A768A7CC91BFFF4B3505E54F ====

Лог DRM

foobar2000 1.2.9 / Dynamic Range Meter 1.1.1log date: 2018-09-06 22:08:23
--------------------------------------------------------------------------------Analyzed: Brad Darrid / Brad Darrid--------------------------------------------------------------------------------
DR Peak RMS Duration Track--------------------------------------------------------------------------------DR13 -0.10 dB -15.16 dB 3:25 01-Coral StonesDR7 -3.10 dB -10.81 dB 3:51 02-Guilt TripDR6 -3.10 dB -10.54 dB 5:04 03-If Loves not enoughDR13 -0.10 dB -15.10 dB 3:34 04-Friday NightDR10 -0.10 dB -11.56 dB 4:13 05-BrokenDR12 -0.10 dB -16.07 dB 4:42 06-Only OneDR13 -0.10 dB -14.26 dB 3:38 07-Trying to forgetDR11 -0.10 dB -13.60 dB 5:02 08-MiseryDR13 -0.10 dB -14.91 dB 4:37 09-Midnight TrainDR12 -0.10 dB -13.62 dB 4:00 10-Dancing in the StreetsDR13 -0.10 dB -15.97 dB 5:18 11-Given UpDR12 -0.10 dB -14.94 dB 3:27 12-The Jester, The King--------------------------------------------------------------------------------
Number of tracks: 12Official DR value: DR11
Samplerate: 44100 HzChannels: 2Bits per sample: 16Bitrate: 906 kbpsCodec: FLAC================================================================================
Доп. информация: Producer - Paul Laine.
Вы не можете начинать темы
Вы не можете отвечать на сообщения
Вы не можете редактировать свои сообщения
Вы не можете удалять свои сообщения
Вы не можете голосовать в опросах
Вы не можете прикреплять файлы к сообщениям
Вы можете скачивать файлы
!ВНИМАНИЕ!

Сайт не предоставляет электронные версии произведений, а занимается лишь коллекционированием и каталогизацией ссылок, присылаемых и публикуемых на форуме нашими читателями. Если вы являетесь правообладателем какого-либо представленного материала и не желаете, чтобы ссылка на него находилась в нашем каталоге, свяжитесь с нами, и мы незамедлительно удалим ее. Файлы для обмена на трекере предоставлены пользователями сайта, и администрация не несет ответственности за их содержание. Просьба не заливать файлы, защищенные авторскими правами, а также файлы нелегального содержания!

Искали программы, игры, дополнения, музыка mp3, аниме, аудио книги, журналы? Добро пожаловать на свободный торрент трекер Torrents, у нас можно скачать бесплатно, без смс и регистрации и прочих ограничений лучшие, отборные сборки программ, игр. Скачать торрентом не составит труда даже не опытному пользователю. Раздачи ежедневно обновляются, только лучшие и качественные раздачи, подробные описания и скриншоты. Огромная коллекция программ для работы со звуком, графикой, дизайном, а так же множество плагинов и инструментов к ним с подробной инструкцией и рекомендациями. Прошивки для навигаторов, карты. Разнообразные игры, для Windows, Linux. В коллекцие есть и старые игры любых жанров, Rpg, Action, Shooter, strategy Множество дополнений, модификаций, сценариев для популярных игр в жанре экш, рпг, гонки, стратегии, логические игры. Множество аддонов и сценариев для Microsoft Flight Simulator Большая коллекция книг, учебников. Если нет возможности купить печатное издание - смело скачивайте цифровую версию книги или, быть может, журнала. Не любите читать - можно загрузить бесплатно аудикнигу. Для веб дизайнеров и программистов так же найдется множество специализированного софта, таких как: редакторы с подсветкой, среды программирования, компоненты, системы управления базами данных, разнообразные скрипты и шаблоны. Не так давно у нас появился материал для автолюбителей и владельцев мото - оригинальные и неоригинальные каталоги запчастей, книги и журналы по ремонту и обслуживанию, видеоуроки, статьи по чип тюнингу, прошивкам. Процедура получения контента элементарная, достаточно просто скачать торрент файл и добавить его в загрузку в вашем торрент клиенте. Если у вас нет специального торрент клиента, вы можете его скачать у нас.