(Melodic Hard Rock) [WEB] Snakes In Paradise - Step into the Light - 2018, FLAC (tracks), lossless 

Цитировать
Snakes In Paradise / Step into the Light- Жанр: Melodic Hard Rock
Носитель: WEB
Год издания: 2018
Издатель-лейбл: Frontiers Records
Страна исполнителя: Sweden
Аудиокодек: FLAC (*.flac)
Тип рипа: tracks
Битрейт аудио: lossless
Продолжительность: 00:49:22
Источник: Сеть - купить
Наличие сканов: нет

Треклист:
01. Wings of Steel (4:12)
02. Silent Sky (5:31)
03. Will You Remember Me (3:45)
04. Angelin (4:26)
05. Living Without Your Love (4:05)
06. If I Ever See the Sun (4:33)
07. After the Fire is Gone (4:13)
08. Love on the Otherside (3:36)
09. Things (3:28)
10. Liza (3:44)
11. Life`s Been Good to You & Me (3:25)
12. Step into the Light (4:25)

auCDtect

PERFORMER: auCDtect Task Manager, ver. 1.6.0 RC1 build 1.6.0.1Copyright (c) 2008-2010 y-soft. All rights reservedhttp://y-soft.org
ANALYZER: auCDtect: CD records authenticity detector, version 0.8.2Copyright (c) 2004 Oleg Berngardt. All rights reserved.Copyright (c) 2004 Alexander Djourik. All rights reserved.
FILE: 12 Step into the Light.flac Size: 32735310 Hash: ACCC0CE87E19E81639D35FAA1445F9F5 Accuracy: -m0 Conclusion: CDDA 100% Signature: 0AD62CF9A3F982C7667895556E2F402FFA750BCFFILE: 11 Life`s Been Good to You & Me.flac Size: 25314064 Hash: DE1F010CD3E37E93B77FAEE47F67C842 Accuracy: -m0 Conclusion: CDDA 100% Signature: 61E54BFB94C25C14B7F328CC7D04C44CD29D3981FILE: 10 Liza.flac Size: 29414021 Hash: CA8A8FF050F893DBF6F3E29401A90697 Accuracy: -m0 Conclusion: CDDA 100% Signature: 70331A709B7BEC3252FB277F9907598F0C6AD66AFILE: 09 Things.flac Size: 24938920 Hash: 604BA2948C87245C2B644A3BA228451E Accuracy: -m0 Conclusion: CDDA 100% Signature: 7076F76063226B3281728F1758972200BEC3BA50FILE: 08 Love on the Otherside.flac Size: 26780379 Hash: FC6EC25226D148F0517C73C4802868F3 Accuracy: -m0 Conclusion: CDDA 100% Signature: 2C72118F90DF5931B8D9D6105BE6A9DEFC0AF852FILE: 07 After the Fire is Gone.flac Size: 29520415 Hash: AC779609E654EB9DDA15152C5464B2D8 Accuracy: -m0 Conclusion: CDDA 100% Signature: E3256325950FBC23EB582E3EB6819BC45E2A171AFILE: 06 If I Ever See the Sun.flac Size: 36075391 Hash: 8335C00623A615792C0A3DCBD1902CC7 Accuracy: -m0 Conclusion: CDDA 100% Signature: C90DDD9F1346F90F55C63EF5ACB9EA58F7321C8FFILE: 05 Living Without Your Love.flac Size: 31899068 Hash: AC0A014E7762F4F638B2BC897357D482 Accuracy: -m0 Conclusion: CDDA 100% Signature: 350240810F30496738C96E2634D60FCD8E2A341CFILE: 04 Angelin.flac Size: 33822860 Hash: 9BADDB4C89F704B1F8EB021720C8C805 Accuracy: -m0 Conclusion: CDDA 100% Signature: 157904E746D3255C8352D8283D6F060E4017B05EFILE: 03 Will You Remember Me.flac Size: 29270200 Hash: C1B8C1ABCBD1249782A9A42B43A96975 Accuracy: -m0 Conclusion: CDDA 99% Signature: A5136E14FF887F1F501F9E56C0ACD32430E6F82EFILE: 02 Silent Sky.flac Size: 43902544 Hash: D469122F5718FF34EDD71C2E069E90E5 Accuracy: -m0 Conclusion: CDDA 100% Signature: 5ABF98C683BB461D137230F5ED3FB16A8DB0CC31FILE: 01 Wings of Steel.flac Size: 33293917 Hash: 183A467D6F1E392E8837135269E162C8 Accuracy: -m0 Conclusion: CDDA 99% Signature: 86013B6DFF0CB9B39FCC740FE7EE2466C9384141

DR

foobar2000 1.3.19 / Замер динамического диапазона (DR) 1.1.1Дата отчёта:  2018-09-13 23:12:35
--------------------------------------------------------------------------------Анализ: Snakes in Paradise / Step into the Light--------------------------------------------------------------------------------
DR Пики RMS Продолжительность трека--------------------------------------------------------------------------------DR6 -0.21 дБ -7.08 дБ 4:12 01-Wings of SteelDR6 0.00 дБ -7.45 дБ 5:31 02-Silent SkyDR6 0.00 дБ -7.38 дБ 3:45 03-Will You Remember MeDR7 0.00 дБ -8.45 дБ 4:26 04-AngelinDR8 0.00 дБ -8.45 дБ 4:05 05-Living Without Your LoveDR6 0.00 дБ -7.01 дБ 4:33 06-If I Ever See the SunDR7 0.00 дБ -9.09 дБ 4:13 07-After the Fire is GoneDR6 0.00 дБ -7.52 дБ 3:36 08-Love on the OthersideDR7 0.00 дБ -8.44 дБ 3:28 09-ThingsDR6 0.00 дБ -7.99 дБ 3:44 10-LizaDR7 0.00 дБ -7.99 дБ 3:25 11-Life`s Been Good to You & MeDR7 0.00 дБ -8.06 дБ 4:25 12-Step into the Light--------------------------------------------------------------------------------
Количество треков: 12Реальные значения DR: DR7
Частота: 44100 ГцКаналов: 2Разрядность: 16Битрейт: 965 кбит/сКодек: FLAC================================================================================
Вы не можете начинать темы
Вы не можете отвечать на сообщения
Вы не можете редактировать свои сообщения
Вы не можете удалять свои сообщения
Вы не можете голосовать в опросах
Вы не можете прикреплять файлы к сообщениям
Вы можете скачивать файлы
!ВНИМАНИЕ!

Сайт не предоставляет электронные версии произведений, а занимается лишь коллекционированием и каталогизацией ссылок, присылаемых и публикуемых на форуме нашими читателями. Если вы являетесь правообладателем какого-либо представленного материала и не желаете, чтобы ссылка на него находилась в нашем каталоге, свяжитесь с нами, и мы незамедлительно удалим ее. Файлы для обмена на трекере предоставлены пользователями сайта, и администрация не несет ответственности за их содержание. Просьба не заливать файлы, защищенные авторскими правами, а также файлы нелегального содержания!

Искали программы, игры, дополнения, музыка mp3, аниме, аудио книги, журналы? Добро пожаловать на свободный торрент трекер Torrents, у нас можно скачать бесплатно, без смс и регистрации и прочих ограничений лучшие, отборные сборки программ, игр. Скачать торрентом не составит труда даже не опытному пользователю. Раздачи ежедневно обновляются, только лучшие и качественные раздачи, подробные описания и скриншоты. Огромная коллекция программ для работы со звуком, графикой, дизайном, а так же множество плагинов и инструментов к ним с подробной инструкцией и рекомендациями. Прошивки для навигаторов, карты. Разнообразные игры, для Windows, Linux. В коллекцие есть и старые игры любых жанров, Rpg, Action, Shooter, strategy Множество дополнений, модификаций, сценариев для популярных игр в жанре экш, рпг, гонки, стратегии, логические игры. Множество аддонов и сценариев для Microsoft Flight Simulator Большая коллекция книг, учебников. Если нет возможности купить печатное издание - смело скачивайте цифровую версию книги или, быть может, журнала. Не любите читать - можно загрузить бесплатно аудикнигу. Для веб дизайнеров и программистов так же найдется множество специализированного софта, таких как: редакторы с подсветкой, среды программирования, компоненты, системы управления базами данных, разнообразные скрипты и шаблоны. Не так давно у нас появился материал для автолюбителей и владельцев мото - оригинальные и неоригинальные каталоги запчастей, книги и журналы по ремонту и обслуживанию, видеоуроки, статьи по чип тюнингу, прошивкам. Процедура получения контента элементарная, достаточно просто скачать торрент файл и добавить его в загрузку в вашем торрент клиенте. Если у вас нет специального торрент клиента, вы можете его скачать у нас.