(Melodic Hard Rock/Sleaze Rock) [CD] Jet Red - Jet Red [Japan, 25DP-5520, 1989] - 1989, FLAC (image+.cue), lossless 

Цитировать
Jet Red - Jet Red
Жанр: Melodic Hard Rock/Sleaze Rock
Носитель: CD
Страна-производитель диска: Япония
Год издания: 1989
Издатель (лейбл): RELATIVITY/CBS SONY
Номер по каталогу: 25DP-5520
Страна исполнителя (группы): США
Аудиокодек: FLAC (*.flac)
Тип рипа: image+.cue
Битрейт аудио: lossless
Продолжительность: 39:14
Источник (релизер): Собственный рип
Наличие сканов в содержимом раздачи: да
Треклист:
1. Bad As Heaven (03:43)
2. Lonely (03:37)
3. Look In Your Eyes (04:29)
4. Not the Only One (03:47)
5. Outside (04:59)
6. Lolita (03:49)
7. Parlez-Vous Francais (03:41)
8. Let It Roll (03:35)
9. Take Me Tonight (03:45)
10. From the Skies (03:45)

Лог создания рипа

Exact Audio Copy V1.0 beta 3 from 29. August 2011
Отчёт EAC об извлечении, выполненном 13. апреля 2016, 22:54
Jet Red / Jet Red [25DP-5520]
Дисковод: ASUS DRW-2014S1 Adapter: 1 ID: 0
Режим чтения : ДостоверностьИспользование точного потока : ДаОтключение кэша аудио : ДаИспользование указателей C2 : Нет
Коррекция смещения при чтении : 6Способность читать области Lead-in и Lead-out : НетЗаполнение пропущенных сэмплов тишиной : ДаУдаление блоков с тишиной в начале и конце : НетПри вычислениях CRC использовались нулевые сэмплы : ДаИнтерфейс : Встроенный Win32-интерфейс для Win NT/2000
Выходной формат : Пользовательский кодировщикВыбранный битрейт : 128 kBit/sКачество : ВысокийДобавление ID3-тега : НетУтилита сжатия : C:\Program Files (x86)\Exact Audio Copy\Flac\flac.exeДополнительные параметры : -V -8 -T "Date=%year%" -T "Genre=%genre%" %source%
TOC извлечённого CD
Трек | Старт | Длительность | Начальный сектор | Конечный сектор --------------------------------------------------------------------- 1 | 0:00.00 | 3:43.72 | 0 | 16796 2 | 3:43.72 | 3:37.28 | 16797 | 33099 3 | 7:21.25 | 4:29.47 | 33100 | 53321 4 | 11:50.72 | 3:47.08 | 53322 | 70354 5 | 15:38.05 | 4:59.02 | 70355 | 92781 6 | 20:37.07 | 3:49.25 | 92782 | 109981 7 | 24:26.32 | 3:41.00 | 109982 | 126556 8 | 28:07.32 | 3:35.15 | 126557 | 142696 9 | 31:42.47 | 3:45.58 | 142697 | 159629 10 | 35:28.30 | 3:46.00 | 159630 | 176579
Характеристики диапазона извлечения и сообщения об ошибках
Выбранный диапазон
Имя файла Z:\Jet Red\1989 Jet Red\Jet Red - Jet Red [25DP-5520].wav
Пиковый уровень 100.0 % Скорость извлечения 7.6 X Качество диапазона 100.0 % CRC копии 66DE6C18 Копирование... OK
Ошибок не произошло
AccurateRip: сводка
Трек 1 отсутствует в базе данныхТрек 2 отсутствует в базе данныхТрек 3 отсутствует в базе данныхТрек 4 отсутствует в базе данныхТрек 5 отсутствует в базе данныхТрек 6 отсутствует в базе данныхТрек 7 отсутствует в базе данныхТрек 8 отсутствует в базе данныхТрек 9 отсутствует в базе данныхТрек 10 отсутствует в базе данных
Ни одного трека нет в базе AccurateRip
Конец отчёта
==== Контрольная сумма отчёта E2DA5F9412A66ED5D90085768DEFEF3AB2005A70456F1353E8FAC56790F2629C ====
Вы не можете начинать темы
Вы не можете отвечать на сообщения
Вы не можете редактировать свои сообщения
Вы не можете удалять свои сообщения
Вы не можете голосовать в опросах
Вы не можете прикреплять файлы к сообщениям
Вы можете скачивать файлы
!ВНИМАНИЕ!

Сайт не предоставляет электронные версии произведений, а занимается лишь коллекционированием и каталогизацией ссылок, присылаемых и публикуемых на форуме нашими читателями. Если вы являетесь правообладателем какого-либо представленного материала и не желаете, чтобы ссылка на него находилась в нашем каталоге, свяжитесь с нами, и мы незамедлительно удалим ее. Файлы для обмена на трекере предоставлены пользователями сайта, и администрация не несет ответственности за их содержание. Просьба не заливать файлы, защищенные авторскими правами, а также файлы нелегального содержания!

Искали программы, игры, дополнения, музыка mp3, аниме, аудио книги, журналы? Добро пожаловать на свободный торрент трекер Torrents, у нас можно скачать бесплатно, без смс и регистрации и прочих ограничений лучшие, отборные сборки программ, игр. Скачать торрентом не составит труда даже не опытному пользователю. Раздачи ежедневно обновляются, только лучшие и качественные раздачи, подробные описания и скриншоты. Огромная коллекция программ для работы со звуком, графикой, дизайном, а так же множество плагинов и инструментов к ним с подробной инструкцией и рекомендациями. Прошивки для навигаторов, карты. Разнообразные игры, для Windows, Linux. В коллекцие есть и старые игры любых жанров, Rpg, Action, Shooter, strategy Множество дополнений, модификаций, сценариев для популярных игр в жанре экш, рпг, гонки, стратегии, логические игры. Множество аддонов и сценариев для Microsoft Flight Simulator Большая коллекция книг, учебников. Если нет возможности купить печатное издание - смело скачивайте цифровую версию книги или, быть может, журнала. Не любите читать - можно загрузить бесплатно аудикнигу. Для веб дизайнеров и программистов так же найдется множество специализированного софта, таких как: редакторы с подсветкой, среды программирования, компоненты, системы управления базами данных, разнообразные скрипты и шаблоны. Не так давно у нас появился материал для автолюбителей и владельцев мото - оригинальные и неоригинальные каталоги запчастей, книги и журналы по ремонту и обслуживанию, видеоуроки, статьи по чип тюнингу, прошивкам. Процедура получения контента элементарная, достаточно просто скачать торрент файл и добавить его в загрузку в вашем торрент клиенте. Если у вас нет специального торрент клиента, вы можете его скачать у нас.