(Rock, Melodic Hard Rock) [CD] RSO (Richie Sambora + Orianthi) - Radio Free America - 2018, FLAC (tracks+.cue), lossless 

Цитировать
RSO (Richie Sambora + Orianthi) - Radio Free America
Жанр: Rock, Melodic Hard Rock
Носитель: CD
Страна-производитель диска (релиза): RU (Unofficial Release)
Год издания: 2018
Издатель (лейбл): BMG / McGhee Entertainment
Номер по каталогу: 538383432
Страна исполнителя (группы): USA / Australian
Аудиокодек: FLAC (*.flac)
Тип рипа: tracks+.cue
Битрейт аудио: lossless
Продолжительность: 01:07:07
Источник (релизер): Sket4er
Наличие сканов в содержимом раздачи: да
Треклист:
01. Making History (Bob Rock, Orianthi, Richie Sambora) 04:30
02. We Are Magic (Orianthi, Richie Sambora) 04:13
03. Rise (Michael Bearden, Orianthi, Richie Sambora) 03:29
04. Take Me (Bob Rock, Richie Sambora) 04:36
05. Masterpiece (Orianthi, Richie Sambora) 03:56
06. Walk With Me (Bob Rock, Orianthi, Richie Sambora) 04:59
07. I Don't Want To Have To Need You Now (Bob Rock, Orianthi, Richie Sambora) 04:19
08. Truth (Michael Bearden, Orianthi, Richie Sambora) 03:59
09. Together On The Outside (Bob Rock, Orianthi, Richie Sambora) 04:16
10. Good Times (Orianthi, Richie Sambora) 03:25
11. Forever All The Way (Richie Sambora) 04:08
12. I Got You Babe (Sonny Bono) 03:00
13. One Night Of Peace (Richie Sambora) 04:23
14. Blues Won't Leave Me Alone (Orianthi, Richie Sambora) 05:02
15. Hellbound Train (Andy Sylvester, Kim Simmonds) 08:52

Лог создания рипа

Exact Audio Copy V1.3 from 2. September 2016
EAC extraction logfile from 28. August 2018, 19:54
RSO (Richie Sambora & Orianthi) / Radio Free America
Used drive : TSSTcorpCDDVDW SH-224DB Adapter: 1 ID: 0
Read mode : SecureUtilize accurate stream : YesDefeat audio cache : YesMake use of C2 pointers : No
Read offset correction : 6Overread into Lead-In and Lead-Out : NoFill up missing offset samples with silence : YesDelete leading and trailing silent blocks : NoNull samples used in CRC calculations : YesUsed interface : Native Win32 interface for Win NT & 2000Gap handling : Appended to previous track
Used output format : User Defined EncoderSelected bitrate : 1024 kBit/sQuality : HighAdd ID3 tag : NoCommand line compressor : C:\Program Files (x86)\Exact Audio Copy\win64\flac.exeAdditional command line options : -8 -V -T "ARTIST=%artist%" -T "TITLE=%title%" -T "ALBUM=%albumtitle%" -T "DATE=%year%" -T "TRACKNUMBER=%tracknr%" -T "GENRE=%genre%" -T "COMMENT=%comment%" %source% -o %dest%
TOC of the extracted CD
Track | Start | Length | Start sector | End sector --------------------------------------------------------- 1 | 0:00.00 | 4:29.54 | 0 | 20228 2 | 4:29.54 | 4:13.03 | 20229 | 39206 3 | 8:42.57 | 3:28.53 | 39207 | 54859 4 | 12:11.35 | 4:36.02 | 54860 | 75561 5 | 16:47.37 | 3:55.74 | 75562 | 93260 6 | 20:43.36 | 4:58.43 | 93261 | 115653 7 | 25:42.04 | 4:18.68 | 115654 | 135071 8 | 30:00.72 | 3:59.10 | 135072 | 153006 9 | 34:00.07 | 4:16.10 | 153007 | 172216 10 | 38:16.17 | 3:25.30 | 172217 | 187621 11 | 41:41.47 | 4:08.36 | 187622 | 206257 12 | 45:50.08 | 2:59.70 | 206258 | 219752 13 | 48:50.03 | 4:23.36 | 219753 | 239513 14 | 53:13.39 | 5:02.00 | 239514 | 262163 15 | 58:15.39 | 8:51.53 | 262164 | 302041
Track 1
Filename F:\Sket4er\RSO – Radio Free America 2018\01 Making History.wav
Pre-gap length 0:00:02.00
Peak level 100.0 % Extraction speed 2.0 X Track quality 100.0 % Test CRC B5E85607 Copy CRC B5E85607 Cannot be verified as accurate (confidence 1) [5559D85E], AccurateRip returned [EB588E94] (AR v2) Copy OK
Track 2
Filename F:\Sket4er\RSO – Radio Free America 2018\02 We Are Magic.wav
Peak level 100.0 % Extraction speed 2.2 X Track quality 100.0 % Test CRC EFE65F3F Copy CRC EFE65F3F Cannot be verified as accurate (confidence 1) [1BFEB290], AccurateRip returned [C70B6E2B] (AR v2) Copy OK
Track 3
Filename F:\Sket4er\RSO – Radio Free America 2018\03 Rise.wav
Peak level 100.0 % Extraction speed 2.2 X Track quality 100.0 % Test CRC C5D22544 Copy CRC C5D22544 Cannot be verified as accurate (confidence 1) [B219728D], AccurateRip returned [6338CE35] (AR v2) Copy OK
Track 4
Filename F:\Sket4er\RSO – Radio Free America 2018\04 Take Me.wav
Peak level 100.0 % Extraction speed 2.5 X Track quality 100.0 % Test CRC BCDF9EA3 Copy CRC BCDF9EA3 Cannot be verified as accurate (confidence 1) [B1BE2B50], AccurateRip returned [22D6BBAB] (AR v2) Copy OK
Track 5
Filename F:\Sket4er\RSO – Radio Free America 2018\05 Masterpiece.wav
Peak level 100.0 % Extraction speed 2.6 X Track quality 100.0 % Test CRC C836F299 Copy CRC C836F299 Cannot be verified as accurate (confidence 1) [0C3466B0], AccurateRip returned [1E7B509E] (AR v2) Copy OK
Track 6
Filename F:\Sket4er\RSO – Radio Free America 2018\06 Walk With Me.wav
Peak level 100.0 % Extraction speed 2.8 X Track quality 100.0 % Test CRC D892AFFE Copy CRC D892AFFE Cannot be verified as accurate (confidence 1) [5D7FC0BF], AccurateRip returned [0535BD86] (AR v2) Copy OK
Track 7
Filename F:\Sket4er\RSO – Radio Free America 2018\07 I Don't Want To Have To Need You Now.wav
Peak level 100.0 % Extraction speed 2.9 X Track quality 100.0 % Test CRC C08E2926 Copy CRC C08E2926 Cannot be verified as accurate (confidence 1) [97807144], AccurateRip returned [7AC754A2] (AR v2) Copy OK
Track 8
Filename F:\Sket4er\RSO – Radio Free America 2018\08 Truth.wav
Peak level 100.0 % Extraction speed 3.0 X Track quality 100.0 % Test CRC 1339E896 Copy CRC 1339E896 Cannot be verified as accurate (confidence 1) [C4276E4E], AccurateRip returned [E511936B] (AR v2) Copy OK
Track 9
Filename F:\Sket4er\RSO – Radio Free America 2018\09 Together On The Outside.wav
Peak level 100.0 % Extraction speed 3.1 X Track quality 100.0 % Test CRC 35A5B146 Copy CRC 35A5B146 Cannot be verified as accurate (confidence 1) [5ADAFFAA], AccurateRip returned [5BF2F75A] (AR v2) Copy OK
Track 10
Filename F:\Sket4er\RSO – Radio Free America 2018\10 Good Times.wav
Peak level 100.0 % Extraction speed 3.1 X Track quality 100.0 % Test CRC AD58F961 Copy CRC AD58F961 Cannot be verified as accurate (confidence 1) [29D3EA43], AccurateRip returned [388D338B] (AR v2) Copy OK
Track 11
Filename F:\Sket4er\RSO – Radio Free America 2018\11 Forever All The Way.wav
Peak level 100.0 % Extraction speed 3.3 X Track quality 100.0 % Test CRC 1FD2E261 Copy CRC 1FD2E261 Cannot be verified as accurate (confidence 1) [52BAA488], AccurateRip returned [B94B15A5] (AR v2) Copy OK
Track 12
Filename F:\Sket4er\RSO – Radio Free America 2018\12 I Got You Babe.wav
Peak level 100.0 % Extraction speed 2.4 X Track quality 99.9 % Test CRC 5829E5E3 Copy CRC 5829E5E3 Cannot be verified as accurate (confidence 1) [121C729C], AccurateRip returned [CD51CD48] (AR v2) Copy OK
Track 13
Filename F:\Sket4er\RSO – Radio Free America 2018\13 One Night Of Peace.wav
Peak level 100.0 % Extraction speed 3.5 X Track quality 100.0 % Test CRC 7D3896B9 Copy CRC 7D3896B9 Cannot be verified as accurate (confidence 1) [06D302A1], AccurateRip returned [E70C1CDB] (AR v2) Copy OK
Track 14
Filename F:\Sket4er\RSO – Radio Free America 2018\14 Blues Won't Leave Me Alone.wav
Peak level 100.0 % Extraction speed 3.7 X Track quality 100.0 % Test CRC 9DD9FB54 Copy CRC 9DD9FB54 Cannot be verified as accurate (confidence 1) [9779191B], AccurateRip returned [F9708BC0] (AR v2) Copy OK
Track 15
Filename F:\Sket4er\RSO – Radio Free America 2018\15 Hellbound Train.wav
Peak level 100.0 % Extraction speed 4.1 X Track quality 100.0 % Test CRC 187644CA Copy CRC 187644CA Cannot be verified as accurate (confidence 1) [A4290AFC], AccurateRip returned [EA9A48E9] (AR v2) Copy OK
No tracks could be verified as accurateYou may have a different pressing from the one(s) in the database
No errors occurred
End of status report
---- CUETools DB Plugin V2.1.6
[CTDB TOCID: uwQtLEKuUCJAYLLNarEHQyOKkoo-] foundSubmit result: uwQtLEKuUCJAYLLNarEHQyOKkoo- has been confirmedTrack | CTDB Status 1 | (13/13) Accurately ripped 2 | (13/13) Accurately ripped 3 | (13/13) Accurately ripped 4 | (13/13) Accurately ripped 5 | (13/13) Accurately ripped 6 | (13/13) Accurately ripped 7 | (13/13) Accurately ripped 8 | (13/13) Accurately ripped 9 | (13/13) Accurately ripped 10 | (13/13) Accurately ripped 11 | (13/13) Accurately ripped 12 | (13/13) Accurately ripped 13 | (13/13) Accurately ripped 14 | (13/13) Accurately ripped 15 | (13/13) Accurately ripped
==== Log checksum 82360494456674B0DCF35347B4B9E4FC0244E900F85014B8D2EF0D474153B14B ====

Содержание индексной карты (.CUE)

REM GENRE RockREM DATE 2018REM DISCID C30FBB0FREM COMMENT "ExactAudioCopy v1.3"PERFORMER "RSO (Richie Sambora & Orianthi)"TITLE "Radio Free America"REM COMPOSER ""FILE "01 Making History.wav" WAVE  TRACK 01 AUDIO    TITLE "Making History"    PERFORMER "RSO (Richie Sambora & Orianthi)"    REM COMPOSER ""    INDEX 01 00:00:00FILE "02 We Are Magic.wav" WAVE  TRACK 02 AUDIO    TITLE "We Are Magic"    PERFORMER "RSO (Richie Sambora & Orianthi)"    REM COMPOSER ""    INDEX 01 00:00:00FILE "03 Rise.wav" WAVE  TRACK 03 AUDIO    TITLE "Rise"    PERFORMER "RSO (Richie Sambora & Orianthi)"    REM COMPOSER ""    INDEX 01 00:00:00FILE "04 Take Me.wav" WAVE  TRACK 04 AUDIO    TITLE "Take Me"    PERFORMER "RSO (Richie Sambora & Orianthi)"    REM COMPOSER ""    INDEX 01 00:00:00FILE "05 Masterpiece.wav" WAVE  TRACK 05 AUDIO    TITLE "Masterpiece"    PERFORMER "RSO (Richie Sambora & Orianthi)"    REM COMPOSER ""    INDEX 01 00:00:00FILE "06 Walk With Me.wav" WAVE  TRACK 06 AUDIO    TITLE "Walk With Me"    PERFORMER "RSO (Richie Sambora & Orianthi)"    REM COMPOSER ""    INDEX 01 00:00:00FILE "07 I Don't Want To Have To Need You Now.wav" WAVE  TRACK 07 AUDIO    TITLE "I Don't Want To Have To Need You Now"    PERFORMER "RSO (Richie Sambora & Orianthi)"    REM COMPOSER ""    INDEX 01 00:00:00FILE "08 Truth.wav" WAVE  TRACK 08 AUDIO    TITLE "Truth"    PERFORMER "RSO (Richie Sambora & Orianthi)"    REM COMPOSER ""    INDEX 01 00:00:00FILE "09 Together On The Outside.wav" WAVE  TRACK 09 AUDIO    TITLE "Together On The Outside"    PERFORMER "RSO (Richie Sambora & Orianthi)"    REM COMPOSER ""    INDEX 01 00:00:00FILE "10 Good Times.wav" WAVE  TRACK 10 AUDIO    TITLE "Good Times"    PERFORMER "RSO (Richie Sambora & Orianthi)"    REM COMPOSER ""    INDEX 01 00:00:00FILE "11 Forever All The Way.wav" WAVE  TRACK 11 AUDIO    TITLE "Forever All The Way"    PERFORMER "RSO (Richie Sambora & Orianthi)"    REM COMPOSER ""    INDEX 01 00:00:00FILE "12 I Got You Babe.wav" WAVE  TRACK 12 AUDIO    TITLE "I Got You Babe"    PERFORMER "RSO (Richie Sambora & Orianthi)"    REM COMPOSER ""    INDEX 01 00:00:00FILE "13 One Night Of Peace.wav" WAVE  TRACK 13 AUDIO    TITLE "One Night Of Peace"    PERFORMER "RSO (Richie Sambora & Orianthi)"    REM COMPOSER ""    INDEX 01 00:00:00FILE "14 Blues Won't Leave Me Alone.wav" WAVE  TRACK 14 AUDIO    TITLE "Blues Won't Leave Me Alone"    PERFORMER "RSO (Richie Sambora & Orianthi)"    REM COMPOSER ""    INDEX 01 00:00:00FILE "15 Hellbound Train.wav" WAVE  TRACK 15 AUDIO    TITLE "Hellbound Train"    PERFORMER "RSO (Richie Sambora & Orianthi)"    REM COMPOSER ""    INDEX 01 00:00:00

Лог проверки качества

-----------------------
DON'T MODIFY THIS FILE
-----------------------
PERFORMER: auCDtect Task Manager, ver. 1.5.1RC4 build 1.5.1.5Copyright (c) 2008-2010 y-soft. All rights reservedhttp://y-soft.org
ANALYZER: auCDtect: CD records authenticity detector, version 0.8.2Copyright (c) 2004 Oleg Berngardt. All rights reserved.Copyright (c) 2004 Alexander Djourik. All rights reserved.
FILE: 15 Hellbound Train.flac Size: 65525009 Hash: FD4256A1C5F967121CDD212C7C5CB426 Accuracy: -m0 Conclusion: MPEG 79% Signature: B736D25DDFE4A352E15DD29A075159318195FF62FILE: 14 Blues Won't Leave Me Alone.flac Size: 37093663 Hash: 586FD6728FC3B94593771C43B9114216 Accuracy: -m0 Conclusion: CDDA 87% Signature: 6E2C89AC76698BFA217A1F3E7CA39E80728AF200FILE: 13 One Night Of Peace.flac Size: 31399937 Hash: 1C984050D3DEB8112A512C5F88EC9D17 Accuracy: -m0 Conclusion: MPEG 73% Signature: 45A2E777830C7DB296308EB21F13142686FBFC62FILE: 12 I Got You Babe.flac Size: 23867734 Hash: FFB4B5F3FD69EF38E00E3F73587B4534 Accuracy: -m0 Conclusion: MPEG 98% Signature: 80DCC8AB6DC7FF60FB4834F9A06914B69A181E9AFILE: 11 Forever All The Way.flac Size: 28485809 Hash: B3B6C4D1A3C2A3F3F72FFE88930877E3 Accuracy: -m0 Conclusion: MPEG 85% Signature: FC177E35DDD17D137B77448B2BD78E002AABBA3CFILE: 10 Good Times.flac Size: 26833364 Hash: 25BBBCCB210BBE89AA61C8900B191EE1 Accuracy: -m0 Conclusion: CDDA 99% Signature: E456F6308B1D1157B05799A730203EBE5CA241E6FILE: 09 Together On The Outside.flac Size: 34033663 Hash: B84C635C51D77CBEC7894864A2B471F6 Accuracy: -m0 Conclusion: CDDA 94% Signature: AE9CE173C9CFFD721F21DA5A7B371DBF46208532FILE: 08 Truth.flac Size: 24950610 Hash: 2159287C98217B51CEDDB1F6B83576F8 Accuracy: -m0 Conclusion: MPEG 85% Signature: A740E0BF3BAC6AB76AA8166EE797F1A139498102FILE: 07 I Don't Want To Have To Need You Now.flac Size: 33142327 Hash: 13BC392362C5EB8F05FC512FD25DDDA6 Accuracy: -m0 Conclusion: CDDA 100% Signature: D1DEA2F43B06C0F08A138DC3D0124D01CE337390FILE: 06 Walk With Me.flac Size: 35265333 Hash: 2891790D5DC97B48A0AA28E7E4B1ACA5 Accuracy: -m0 Conclusion: CDDA 100% Signature: 7F4FEB8169C3A191832EE55F231F95B7CD6E8123FILE: 05 Masterpiece.flac Size: 29854987 Hash: 2E1AF27DD9E08277F607F4E60C3EE4F1 Accuracy: -m0 Conclusion: MPEG 95% Signature: C015AF9F20019A72429813289D0EE250FD1F0ED0FILE: 04 Take Me.flac Size: 31034161 Hash: 01DC179D8C66CEDA670F86D5CD46C0E1 Accuracy: -m0 Conclusion: CDDA 100% Signature: CAFF7E76AB7A736DFE9418B0A5438A11A28A4B68FILE: 03 Rise.flac Size: 25953427 Hash: 9017C1790B3FBC08D80A2DED1A6335D9 Accuracy: -m0 Conclusion: CDDA 100% Signature: 32FF93DF1CF7D1AAFA58CB9934A015E99B9C12DBFILE: 02 We Are Magic.flac Size: 32675578 Hash: 19544AB47764D431A72478714C256736 Accuracy: -m0 Conclusion: MPEG 85% Signature: 681021B5FD0E150AC30C5D7C5B1BD409C5BA98B4FILE: 01 Making History.flac Size: 35439704 Hash: AE08D2A19BD102B0E05D51713B716070 Accuracy: -m0 Conclusion: CDDA 100% Signature: A91C9B84D15419989E050879CFF47685371A597B

DR log

foobar2000 1.3.9 / Замер динамического диапазона (DR) 1.1.1Дата отчёта:  2018-09-05 22:22:28
--------------------------------------------------------------------------------Анализ: RSO (Richie Sambora & Orianthi) / Radio Free America--------------------------------------------------------------------------------
DR Пики RMS Продолжительность трека--------------------------------------------------------------------------------DR6 0.00 дБ -7.66 дБ 4:30 01-Making HistoryDR6 0.00 дБ -7.82 дБ 4:13 02-We Are MagicDR6 0.00 дБ -7.96 дБ 3:29 03-RiseDR6 0.00 дБ -7.46 дБ 4:36 04-Take MeDR6 0.00 дБ -7.90 дБ 3:56 05-MasterpieceDR6 0.00 дБ -7.36 дБ 4:59 06-Walk With MeDR5 0.00 дБ -6.34 дБ 4:19 07-I Don't Want To Have To Need You NowDR7 0.00 дБ -10.76 дБ 3:59 08-TruthDR4 0.00 дБ -6.36 дБ 4:16 09-Together On The OutsideDR6 0.00 дБ -7.13 дБ 3:25 10-Good TimesDR7 0.00 дБ -9.30 дБ 4:08 11-Forever All The WayDR7 0.00 дБ -7.94 дБ 3:00 12-I Got You BabeDR5 0.00 дБ -7.35 дБ 4:23 13-One Night Of PeaceDR7 0.00 дБ -8.80 дБ 5:02 14-Blues Won't Leave Me AloneDR8 0.00 дБ -9.27 дБ 8:52 15-Hellbound Train--------------------------------------------------------------------------------
Количество треков: 15Реальные значения DR: DR6
Частота: 44100 ГцКаналов: 2Разрядность: 16Битрейт: 986 кбит/сКодек: FLAC================================================================================
Доп. информация

Состав

Richie Sambora – lead vocals, electric and acoustic guitars, talkbox, bass, keyboards, percussion
Orianthi – lead vocals, background vocals, electric and acoustic guitars, bass (track 3), production (track 14)

Об исполнителе

RSO is the new project by ex-Bon Jovi guitarist Richie Sambora and guitarist/vocalist Orianthi Panagaris who has previously played and toured with Michael Jackson, Alice Cooper, Hollywood Vampires, Michael Bolton. Dave Stewart (ex-Eurythmics) etc. and has released a number of solo albums.
http://www.amazon.com/Radio-Free-America-RSO/dp/B07BF2S4SR
http://en.wikipedia.org/wiki/Radio_Free_America_(album)
http://www.rsoofficial.com
Вы не можете начинать темы
Вы не можете отвечать на сообщения
Вы не можете редактировать свои сообщения
Вы не можете удалять свои сообщения
Вы не можете голосовать в опросах
Вы не можете прикреплять файлы к сообщениям
Вы можете скачивать файлы
!ВНИМАНИЕ!

Сайт не предоставляет электронные версии произведений, а занимается лишь коллекционированием и каталогизацией ссылок, присылаемых и публикуемых на форуме нашими читателями. Если вы являетесь правообладателем какого-либо представленного материала и не желаете, чтобы ссылка на него находилась в нашем каталоге, свяжитесь с нами, и мы незамедлительно удалим ее. Файлы для обмена на трекере предоставлены пользователями сайта, и администрация не несет ответственности за их содержание. Просьба не заливать файлы, защищенные авторскими правами, а также файлы нелегального содержания!

Искали программы, игры, дополнения, музыка mp3, аниме, аудио книги, журналы? Добро пожаловать на свободный торрент трекер Torrents, у нас можно скачать бесплатно, без смс и регистрации и прочих ограничений лучшие, отборные сборки программ, игр. Скачать торрентом не составит труда даже не опытному пользователю. Раздачи ежедневно обновляются, только лучшие и качественные раздачи, подробные описания и скриншоты. Огромная коллекция программ для работы со звуком, графикой, дизайном, а так же множество плагинов и инструментов к ним с подробной инструкцией и рекомендациями. Прошивки для навигаторов, карты. Разнообразные игры, для Windows, Linux. В коллекцие есть и старые игры любых жанров, Rpg, Action, Shooter, strategy Множество дополнений, модификаций, сценариев для популярных игр в жанре экш, рпг, гонки, стратегии, логические игры. Множество аддонов и сценариев для Microsoft Flight Simulator Большая коллекция книг, учебников. Если нет возможности купить печатное издание - смело скачивайте цифровую версию книги или, быть может, журнала. Не любите читать - можно загрузить бесплатно аудикнигу. Для веб дизайнеров и программистов так же найдется множество специализированного софта, таких как: редакторы с подсветкой, среды программирования, компоненты, системы управления базами данных, разнообразные скрипты и шаблоны. Не так давно у нас появился материал для автолюбителей и владельцев мото - оригинальные и неоригинальные каталоги запчастей, книги и журналы по ремонту и обслуживанию, видеоуроки, статьи по чип тюнингу, прошивкам. Процедура получения контента элементарная, достаточно просто скачать торрент файл и добавить его в загрузку в вашем торрент клиенте. Если у вас нет специального торрент клиента, вы можете его скачать у нас.