(Melodic Rock | AOR) [CD] FM - Atomic Generation - 2018, FLAC (image+.cue), lossless 

Цитировать
FM / Atomic Generation

Жанр: Melodic Rock | AOR
Носитель: CD
Страна-производитель диска (релиза): Russia (Unofficial Release)
Год издания: 2018
Издатель (лейбл): Avalon
Номер по каталогу: MICP-11406
Страна исполнителя (группы): UK
Аудиокодек: FLAC (*.flac)
Тип рипа: image+.cue
Битрейт аудио: lossless
Продолжительность: 56:40
Источник (релизер): мой диск
Наличие сканов в содержимом раздачи: да
Треклист:
01. Black Magic (4:30)
02. Too Much Of A Good Thing (4:10)
03. Killed By Love (4:40)
04. _In It For The Money (4:16)
05. Golden Days (5:05)
06. Playing Tricks On Me (4:00)
07. Make The Best Of What You Got (4:42)
08. Follow Your Heart (5:40)
09. Do You Love Me Enough (4:58)
10. Stronger (4:54)
11. Love Is The Law (6:03)
12. Three-Minute Warning (Bonus Track) (3:43)

Лог создания рипа

Exact Audio Copy V1.3 from 2. September 2016
EAC extraction logfile from 24. August 2018, 18:04
FM / Atomic Generation
Used drive : TSSTcorpCDDVDW SH-S222A Adapter: 1 ID: 0
Read mode : SecureUtilize accurate stream : YesDefeat audio cache : YesMake use of C2 pointers : No
Read offset correction : 6Overread into Lead-In and Lead-Out : NoFill up missing offset samples with silence : YesDelete leading and trailing silent blocks : NoNull samples used in CRC calculations : YesUsed interface : Native Win32 interface for Win NT & 2000
Used output format : User Defined EncoderSelected bitrate : 896 kBit/sQuality : HighAdd ID3 tag : NoCommand line compressor : C:\Program Files\Exact Audio Copy\FLAC\FLAC.EXEAdditional command line options : -6 -V -T "ARTIST=%artist%" -T "TITLE=%title%" -T "ALBUM=%albumtitle%" -T "DATE=%year%" -T "TRACKNUMBER=%tracknr%" -T "GENRE=%genre%" -T "COMMENT=%comment%" -T "BAND=%albuminterpret%" -T "ALBUMARTIST=%albuminterpret%" -T "COMPOSER=%composer%" %haslyrics%--tag-from-file=LYRICS="%lyricsfile%"%haslyrics% -T "DISCNUMBER=%cdnumber%" -T "TOTALDISCS=%totalcds%" -T "TOTALTRACKS=%numtracks%" %hascover%--picture="%coverfile%"%hascover% %source% -o %dest%
TOC of the extracted CD
Track | Start | Length | Start sector | End sector --------------------------------------------------------- 1 | 0:00.00 | 4:30.23 | 0 | 20272 2 | 4:30.23 | 4:10.00 | 20273 | 39022 3 | 8:40.23 | 4:40.15 | 39023 | 60037 4 | 13:20.38 | 4:16.00 | 60038 | 79237 5 | 17:36.38 | 5:05.08 | 79238 | 102120 6 | 22:41.46 | 4:00.08 | 102121 | 120128 7 | 26:41.54 | 4:41.45 | 120129 | 141248 8 | 31:23.24 | 5:39.53 | 141249 | 166726 9 | 37:03.02 | 4:57.68 | 166727 | 189069 10 | 42:00.70 | 4:53.60 | 189070 | 211104 11 | 46:54.55 | 6:02.45 | 211105 | 238299 12 | 52:57.25 | 3:43.05 | 238300 | 255029
Range status and errors
Selected range
Filename D:\Music\Мои раздачи\FM - Atomic Generation.wav
Peak level 99.9 % Extraction speed 7.1 X Range quality 100.0 % Test CRC 348024DE Copy CRC 348024DE Copy OK
No errors occurred
AccurateRip summary
Track 1 not present in databaseTrack 2 not present in databaseTrack 3 not present in databaseTrack 4 not present in databaseTrack 5 not present in databaseTrack 6 not present in databaseTrack 7 not present in databaseTrack 8 not present in databaseTrack 9 not present in databaseTrack 10 not present in databaseTrack 11 not present in databaseTrack 12 not present in database
None of the tracks are present in the AccurateRip database
End of status report
---- CUETools DB Plugin V2.1.6
[CTDB TOCID: 8al1bYd3MqdYx9taxJwW6CpJGPQ-] foundSubmit result: 8al1bYd3MqdYx9taxJwW6CpJGPQ- has been confirmedTrack | CTDB Status 1 | (2/2) Accurately ripped 2 | (2/2) Accurately ripped 3 | (2/2) Accurately ripped 4 | (2/2) Accurately ripped 5 | (2/2) Accurately ripped 6 | (1/2) Accurately ripped 7 | (1/2) Accurately ripped 8 | (2/2) Accurately ripped 9 | (2/2) Accurately ripped 10 | (2/2) Accurately ripped 11 | (2/2) Accurately ripped 12 | (2/2) Accurately ripped
==== Log checksum A4159827BC8F6938407962CB423FD91312A4A64BE29796049268C96F05176521 ====

Лог проверки качества

-----------------------
DON'T MODIFY THIS FILE
-----------------------
PERFORMER: auCDtect Task Manager, ver. 1.6.0 RC1 build 1.6.0.1Copyright (c) 2008-2010 y-soft. All rights reservedhttp://y-soft.org
ANALYZER: auCDtect: CD records authenticity detector, version 0.8.2Copyright (c) 2004 Oleg Berngardt. All rights reserved.Copyright (c) 2004 Alexander Djourik. All rights reserved.
FILE: FM - Atomic Generation.flac Size: 409126595 Hash: 21C393A3A6949AB1A254FC33ECE919CC Accuracy: -m0 Conclusion: CDDA 100% Signature: 05EEE2D710DF1FF3C06AD47BCAFCFE620576CFA5

Скриншот спектра частот

Лог DRM

foobar2000 1.2.9 / Dynamic Range Meter 1.1.1log date: 2018-08-24 20:50:47
--------------------------------------------------------------------------------Analyzed: FM / Atomic Generation--------------------------------------------------------------------------------
DR Peak RMS Duration Track--------------------------------------------------------------------------------DR7 0.00 dB -8.07 dB 4:30 01-Black MagicDR7 0.00 dB -7.91 dB 4:10 02-Too Much Of A Good ThingDR7 0.00 dB -8.10 dB 4:40 03-Killed By LoveDR8 0.00 dB -8.73 dB 4:16 04- In It For The MoneyDR7 0.00 dB -9.09 dB 5:05 05-Golden DaysDR7 -0.10 dB -8.52 dB 4:00 06-Playing Tricks On MeDR7 0.00 dB -8.62 dB 4:42 07-Make The Best Of What You GotDR6 0.00 dB -7.63 dB 5:40 08-Follow Your HeartDR6 0.00 dB -7.75 dB 4:58 09-Do You Love Me EnoughDR7 -0.10 dB -9.19 dB 4:54 10-StrongerDR6 -0.10 dB -8.30 dB 6:03 11-Love Is The LawDR7 -0.10 dB -8.55 dB 3:43 12-Three-Minute Warning (Japan Bonus Track)--------------------------------------------------------------------------------
Number of tracks: 12Official DR value: DR7
Samplerate: 44100 HzChannels: 2Bits per sample: 16Bitrate: 962 kbpsCodec: FLAC================================================================================
Доп. информация:

Об исполнителе (группе)

http://www.fmofficial.com/fmofficial/index.html

Состав

Steve Overland - Vocals, Guitars
Jem Davis - Keyboards
Jim Kirkpatrick - Guitars
Merv Goldsworthy - Bass
Pete Jupp - Drums
Additional Musicians:
Scott Ralph – Horns on “Playing Tricks On Me”
Chris Cliff – Cello on “Follow Your Heart”
Вы не можете начинать темы
Вы не можете отвечать на сообщения
Вы не можете редактировать свои сообщения
Вы не можете удалять свои сообщения
Вы не можете голосовать в опросах
Вы не можете прикреплять файлы к сообщениям
Вы можете скачивать файлы
!ВНИМАНИЕ!

Сайт не предоставляет электронные версии произведений, а занимается лишь коллекционированием и каталогизацией ссылок, присылаемых и публикуемых на форуме нашими читателями. Если вы являетесь правообладателем какого-либо представленного материала и не желаете, чтобы ссылка на него находилась в нашем каталоге, свяжитесь с нами, и мы незамедлительно удалим ее. Файлы для обмена на трекере предоставлены пользователями сайта, и администрация не несет ответственности за их содержание. Просьба не заливать файлы, защищенные авторскими правами, а также файлы нелегального содержания!

Искали программы, игры, дополнения, музыка mp3, аниме, аудио книги, журналы? Добро пожаловать на свободный торрент трекер Torrents, у нас можно скачать бесплатно, без смс и регистрации и прочих ограничений лучшие, отборные сборки программ, игр. Скачать торрентом не составит труда даже не опытному пользователю. Раздачи ежедневно обновляются, только лучшие и качественные раздачи, подробные описания и скриншоты. Огромная коллекция программ для работы со звуком, графикой, дизайном, а так же множество плагинов и инструментов к ним с подробной инструкцией и рекомендациями. Прошивки для навигаторов, карты. Разнообразные игры, для Windows, Linux. В коллекцие есть и старые игры любых жанров, Rpg, Action, Shooter, strategy Множество дополнений, модификаций, сценариев для популярных игр в жанре экш, рпг, гонки, стратегии, логические игры. Множество аддонов и сценариев для Microsoft Flight Simulator Большая коллекция книг, учебников. Если нет возможности купить печатное издание - смело скачивайте цифровую версию книги или, быть может, журнала. Не любите читать - можно загрузить бесплатно аудикнигу. Для веб дизайнеров и программистов так же найдется множество специализированного софта, таких как: редакторы с подсветкой, среды программирования, компоненты, системы управления базами данных, разнообразные скрипты и шаблоны. Не так давно у нас появился материал для автолюбителей и владельцев мото - оригинальные и неоригинальные каталоги запчастей, книги и журналы по ремонту и обслуживанию, видеоуроки, статьи по чип тюнингу, прошивкам. Процедура получения контента элементарная, достаточно просто скачать торрент файл и добавить его в загрузку в вашем торрент клиенте. Если у вас нет специального торрент клиента, вы можете его скачать у нас.