(Melodic Hard Rock) [WEB] Acacia Avenue - Worlds Apart - 2018, FLAC (tracks), lossless 

Цитировать
Acacia Avenue - Worlds Apart- Жанр: Melodic Hard Rock
Носитель: WEB
Год издания: 2018
Издатель-лейбл: Perris Records
Страна исполнителя: Denmark
Аудиокодек: FLAC (*.flac)
Тип рипа: tracks
Битрейт аудио: lossless
Продолжительность: 00:51:11
Источник: Сеть
Наличие сканов: нет

Треклист:
01. Stand up and Shout (4:45)
02. Worlds Apart (4:50)
03. Out of Control (4:39)
04. Fly Away (4:04)
05. Mine All Mine (4:30)
06. Straight to the Heart (4:23)
07. Reaching Out (4:27)
08. Seeing Is Believing (5:32)
09. Don't Chain My Heart (4:51)
10. Wait for Love (4:51)
11. Chasing Starlight (4:21)

auCDtect

PERFORMER: auCDtect Task Manager, ver. 1.6.0 RC1 build 1.6.0.1Copyright (c) 2008-2010 y-soft. All rights reservedhttp://y-soft.org
ANALYZER: auCDtect: CD records authenticity detector, version 0.8.2Copyright (c) 2004 Oleg Berngardt. All rights reserved.Copyright (c) 2004 Alexander Djourik. All rights reserved.
FILE: 11 Chasing Starlight.flac Size: 36630906 Hash: 15103C58929BC902410819C68881BAA4 Accuracy: -m0 Conclusion: CDDA 100% Signature: 1476E4D4460B0F964FC7EE28E531310D2FEFD459FILE: 10 Wait for Love.flac Size: 40297533 Hash: 3DAA96727A62B444F08ED2D661BAF17A Accuracy: -m0 Conclusion: CDDA 100% Signature: 7316368F4D3136091318E25D713E67A04302B599FILE: 09 Don't Chain My Heart.flac Size: 38983652 Hash: DFC7EC47CD3EA254EE112CD4771D9396 Accuracy: -m0 Conclusion: CDDA 100% Signature: 3B9EAC8D8B3EB7C5FEE625DF871132C7B999FB50FILE: 08 Seeing Is Believing.flac Size: 45234356 Hash: 00DA90916D39D0B294CFEBB2A665D17C Accuracy: -m0 Conclusion: CDDA 100% Signature: DECE493FD2313143CA42C93604FC69225B6D984AFILE: 07 Reaching Out.flac Size: 35812333 Hash: 5F77699AC6C8E0D60A7B10E3E20AC3EE Accuracy: -m0 Conclusion: CDDA 100% Signature: 0BB812C31ACF7F68A00D7717267B89D970B07EA4FILE: 06 Straight to the Heart.flac Size: 35741019 Hash: 6324DFAFA852133237A22E55CE377C95 Accuracy: -m0 Conclusion: CDDA 100% Signature: 0FFA7A745A30C3979CF76A4032D3D971C186EC21FILE: 05 Mine All Mine.flac Size: 37327399 Hash: D307C75E0FEA8956C640D14A5844C123 Accuracy: -m0 Conclusion: CDDA 100% Signature: 219BA00EAF2FAD01D752171DD5B2BE5E0523476BFILE: 04 Fly Away.flac Size: 32238115 Hash: 337501E51DABAE8C33EB804AC3A3B607 Accuracy: -m0 Conclusion: CDDA 100% Signature: 28B43F5D11EA31431740306DA9F680F5B5B724D0FILE: 03 Out of Control.flac Size: 37206692 Hash: 695C24751D96D61E23659DCE94DDD3E1 Accuracy: -m0 Conclusion: CDDA 100% Signature: 1AE58323A71D92020F9BBB78E4C1C3AF0660627DFILE: 02 Worlds Apart.flac Size: 39817473 Hash: EEE8C3AE00C77FEB195ED82E0EF55C29 Accuracy: -m0 Conclusion: CDDA 100% Signature: 674D40869206163043564B9E9FDB0EB1557ACE05FILE: 01 Stand up and Shout.flac Size: 39540897 Hash: 9F6A34A74574CD24062F0CE727FF19CB Accuracy: -m0 Conclusion: CDDA 100% Signature: 62C155C960A7041D523944AF8C3F74047194D01D

DR

foobar2000 1.3.19 / Замер динамического диапазона (DR) 1.1.1Дата отчёта:  2018-09-21 07:29:07
--------------------------------------------------------------------------------Анализ: Acacia Avenue / Worlds Apart--------------------------------------------------------------------------------
DR Пики RMS Продолжительность трека--------------------------------------------------------------------------------DR6 0.00 дБ -6.76 дБ 4:45 01-Stand up and ShoutDR6 0.00 дБ -7.09 дБ 4:50 02-Worlds ApartDR7 0.00 дБ -8.15 дБ 4:39 03-Out of ControlDR7 0.00 дБ -8.73 дБ 4:04 04-Fly AwayDR7 0.00 дБ -7.72 дБ 4:30 05-Mine All MineDR7 0.00 дБ -7.82 дБ 4:23 06-Straight to the HeartDR6 0.00 дБ -8.10 дБ 4:27 07-Reaching OutDR7 0.00 дБ -8.11 дБ 5:32 08-Seeing Is BelievingDR7 0.00 дБ -8.54 дБ 4:51 09-Don't Chain My HeartDR7 0.00 дБ -7.84 дБ 4:51 10-Wait for LoveDR6 0.00 дБ -7.65 дБ 4:21 11-Chasing Starlight--------------------------------------------------------------------------------
Количество треков: 11Реальные значения DR: DR7
Частота: 44100 ГцКаналов: 2Разрядность: 16Битрейт: 1112 кбит/сКодек: FLAC================================================================================
Вы не можете начинать темы
Вы не можете отвечать на сообщения
Вы не можете редактировать свои сообщения
Вы не можете удалять свои сообщения
Вы не можете голосовать в опросах
Вы не можете прикреплять файлы к сообщениям
Вы можете скачивать файлы
!ВНИМАНИЕ!

Сайт не предоставляет электронные версии произведений, а занимается лишь коллекционированием и каталогизацией ссылок, присылаемых и публикуемых на форуме нашими читателями. Если вы являетесь правообладателем какого-либо представленного материала и не желаете, чтобы ссылка на него находилась в нашем каталоге, свяжитесь с нами, и мы незамедлительно удалим ее. Файлы для обмена на трекере предоставлены пользователями сайта, и администрация не несет ответственности за их содержание. Просьба не заливать файлы, защищенные авторскими правами, а также файлы нелегального содержания!

Искали программы, игры, дополнения, музыка mp3, аниме, аудио книги, журналы? Добро пожаловать на свободный торрент трекер Torrents, у нас можно скачать бесплатно, без смс и регистрации и прочих ограничений лучшие, отборные сборки программ, игр. Скачать торрентом не составит труда даже не опытному пользователю. Раздачи ежедневно обновляются, только лучшие и качественные раздачи, подробные описания и скриншоты. Огромная коллекция программ для работы со звуком, графикой, дизайном, а так же множество плагинов и инструментов к ним с подробной инструкцией и рекомендациями. Прошивки для навигаторов, карты. Разнообразные игры, для Windows, Linux. В коллекцие есть и старые игры любых жанров, Rpg, Action, Shooter, strategy Множество дополнений, модификаций, сценариев для популярных игр в жанре экш, рпг, гонки, стратегии, логические игры. Множество аддонов и сценариев для Microsoft Flight Simulator Большая коллекция книг, учебников. Если нет возможности купить печатное издание - смело скачивайте цифровую версию книги или, быть может, журнала. Не любите читать - можно загрузить бесплатно аудикнигу. Для веб дизайнеров и программистов так же найдется множество специализированного софта, таких как: редакторы с подсветкой, среды программирования, компоненты, системы управления базами данных, разнообразные скрипты и шаблоны. Не так давно у нас появился материал для автолюбителей и владельцев мото - оригинальные и неоригинальные каталоги запчастей, книги и журналы по ремонту и обслуживанию, видеоуроки, статьи по чип тюнингу, прошивкам. Процедура получения контента элементарная, достаточно просто скачать торрент файл и добавить его в загрузку в вашем торрент клиенте. Если у вас нет специального торрент клиента, вы можете его скачать у нас.