(Melodic Rock) [CD] Ted Poley - Smile - 2008, FLAC (image+.cue), lossless 

Цитировать

Ted Poley

Smile




• Жанр: Melodic Rock
• Носитель: CD
• Год издания: 2008
• Издатель (лейбл) Locomotive Records S.L.
• Номер по каталогу: LM581
• Страна исполнителя (группы): USA
• Аудиокодек: FLAC (*.flac)
• Тип рипа: image+.cue
• Продолжительность: 00:47:33
• Источник (релизер): alzal ®
• Наличие сканов: да

01. Waiting Line (00:03:44)
02. Going Blind (00:03:36)
03. Smile (00:04:29)
04. What If She Knew (00:03:49)
05. More Than Goodbye (00:05:27)
06. Luv On Me (00:04:02)
07. If I Can't Change Your Heart (Then Let Me Blow Your Mind) (00:04:07)
08. Why Can't We Pretend That It's Over? (00:03:16)
09. Life Keeps Spinning Me Round (00:04:41)
10. Where It Ends (00:03:45)
11. Will Ya (00:03:49)
12. Reprise (If I Can't Change Your Heart) (00:02:44)
-

• Лог проверки качества

-----------------------
DON'T MODIFY THIS FILE
-----------------------
PERFORMER: auCDtect Task Manager, ver. 1.6.0 RC1 build 1.6.0.1Copyright (c) 2008-2010 y-soft. All rights reservedhttp://y-soft.org
ANALYZER: auCDtect: CD records authenticity detector, version 0.8.2Copyright (c) 2004 Oleg Berngardt. All rights reserved.Copyright (c) 2004 Alexander Djourik. All rights reserved.
FILE: Ted Poley - Smile (LM581).flac Size: 352213195 Hash: 8F00023633A4D3172CA3FCC19FC19726 Accuracy: -m0 Conclusion: CDDA 100% Signature: E0358E885575775DEF5219931A51D0EE66B91D51
-

• Лог создания рипа

Exact Audio Copy V1.3 from 2. September 2016
Отчёт EAC об извлечении, выполненном 11. сентября 2018, 20:17
Ted Poley / Smile (LM581)
Дисковод: PLEXTOR BD-R PX-B950SA Adapter: 1 ID: 0
Режим чтения : ДостоверностьИспользование точного потока : ДаОтключение кэша аудио : ДаИспользование указателей C2 : Нет
Коррекция смещения при чтении : 6Способность читать области Lead-in и Lead-out : НетЗаполнение пропущенных сэмплов тишиной : ДаУдаление блоков с тишиной в начале и конце : НетПри вычислениях CRC использовались нулевые сэмплы : ДаИнтерфейс : Встроенный Win32-интерфейс для Win NT/2000
Выходной формат : Пользовательский кодировщикВыбранный битрейт : 1024 kBit/sКачество : ВысокийДобавление ID3-тега : НетУтилита сжатия : C:\Program Files (x86)\Exact Audio Copy\FLAC\FLAC.EXEДополнительные параметры : -6 -V -T "ARTIST=%artist%" -T "TITLE=%title%" -T "ALBUM=%albumtitle%" -T "DATE=%year%" -T "TRACKNUMBER=%tracknr%" -T "GENRE=%genre%" -T "COMMENT=%comment%" -T "BAND=%albuminterpret%" -T "ALBUMARTIST=%albuminterpret%" -T "COMPOSER=%composer%" %haslyrics%--tag-from-file=LYRICS="%lyricsfile%"%haslyrics% -T "DISCNUMBER=%cdnumber%" -T "TOTALDISCS=%totalcds%" -T "TOTALTRACKS=%numtracks%" %hascover%--picture="%coverfile%"%hascover% %source% -o %dest%
TOC извлечённого CD
Трек | Старт | Длительность | Начальный сектор | Конечный сектор --------------------------------------------------------------------- 1 | 0:00.00 | 3:46.10 | 0 | 16959 2 | 3:46.10 | 3:38.19 | 16960 | 33328 3 | 7:24.29 | 4:31.38 | 33329 | 53691 4 | 11:55.67 | 3:51.00 | 53692 | 71016 5 | 15:46.67 | 5:29.00 | 71017 | 95691 6 | 21:15.67 | 4:04.66 | 95692 | 114057 7 | 25:20.58 | 4:09.38 | 114058 | 132770 8 | 29:30.21 | 3:18.47 | 132771 | 147667 9 | 32:48.68 | 4:43.19 | 147668 | 168911 10 | 37:32.12 | 3:47.38 | 168912 | 185974 11 | 41:19.50 | 3:51.66 | 185975 | 203365 12 | 45:11.41 | 2:46.10 | 203366 | 215825
Характеристики диапазона извлечения и сообщения об ошибках
Выбранный диапазон
Имя файла G:\RIP\Ted Poley 2008 FLAC by alzal\Ted Poley - Smile (LM581).wav
Пиковый уровень 96.3 % Скорость извлечения 8.3 X Качество диапазона 100.0 % CRC теста 8A397716 CRC копии 8A397716 Копирование... OK
Ошибок не произошло
AccurateRip: сводка
Трек 1 : извлечено точно (доверие 1) [BFAF7889] (AR v2)Трек 2 : извлечено точно (доверие 1) [A482FD9B] (AR v2)Трек 3 : извлечено точно (доверие 1) [3D4B9A52] (AR v2)Трек 4 : извлечено точно (доверие 1) [F314CF69] (AR v2)Трек 5 : извлечено точно (доверие 1) [ABB343F9] (AR v2)Трек 6 : извлечено точно (доверие 1) [E35A723E] (AR v2)Трек 7 : извлечено точно (доверие 1) [7609214C] (AR v2)Трек 8 : извлечено точно (доверие 1) [FCC8FA5B] (AR v2)Трек 9 : извлечено точно (доверие 1) [964B359D] (AR v2)Трек 10 : извлечено точно (доверие 1) [2D042CBA] (AR v2)Трек 11 : извлечено точно (доверие 1) [4A8A58D2] (AR v2)Трек 12 : извлечено точно (доверие 1) [A413B038] (AR v2)
Все треки извлечены точно
Конец отчёта
---- CUETools DB Plugin V2.1.6
[CTDB TOCID: 5lDojd0_7EQocThXzjXm6.35jc8-] foundSubmit result: 5lDojd0_7EQocThXzjXm6.35jc8- has been confirmedTrack | CTDB Status 1 | (1/1) Accurately ripped 2 | (1/1) Accurately ripped 3 | (1/1) Accurately ripped 4 | (1/1) Accurately ripped 5 | (1/1) Accurately ripped 6 | (1/1) Accurately ripped 7 | (1/1) Accurately ripped 8 | (1/1) Accurately ripped 9 | (1/1) Accurately ripped 10 | (1/1) Accurately ripped 11 | (1/1) Accurately ripped 12 | (1/1) Accurately ripped
==== Контрольная сумма отчёта 9ADED6FF369EC694427C068FF0F9821F887F9551E232BC40BC382099D4E3FA79 ====
-

• Содержание индексной карты

REM GENRE "Melodic Rock"REM DATE 2008REM DISCID A60B3D0CREM COMMENT "ExactAudioCopy v1.3"PERFORMER "Ted Poley"TITLE "Smile (LM581)"REM COMPOSER ""FILE "Ted Poley - Smile (LM581).flac" WAVE  TRACK 01 AUDIO    TITLE "Waiting Line"    PERFORMER "Ted Poley"    REM COMPOSER ""    INDEX 01 00:00:00  TRACK 02 AUDIO    TITLE "Going Blind"    PERFORMER "Ted Poley"    REM COMPOSER ""    INDEX 00 03:44:10    INDEX 01 03:46:10  TRACK 03 AUDIO    TITLE "Smile"    PERFORMER "Ted Poley"    REM COMPOSER ""    INDEX 00 07:22:29    INDEX 01 07:24:29  TRACK 04 AUDIO    TITLE "What If She Knew"    PERFORMER "Ted Poley"    REM COMPOSER ""    INDEX 00 11:53:67    INDEX 01 11:55:67  TRACK 05 AUDIO    TITLE "More Than Goodbye"    PERFORMER "Ted Poley"    REM COMPOSER ""    INDEX 00 15:44:67    INDEX 01 15:46:67  TRACK 06 AUDIO    TITLE "Luv On Me"    PERFORMER "Ted Poley"    REM COMPOSER ""    INDEX 00 21:13:67    INDEX 01 21:15:67  TRACK 07 AUDIO    TITLE "If I Can't Change Your Heart (Then Let Me Blow Your Mind)"    PERFORMER "Ted Poley"    REM COMPOSER ""    INDEX 00 25:18:58    INDEX 01 25:20:58  TRACK 08 AUDIO    TITLE "Why Can't We Pretend That It's Over? "    PERFORMER "Ted Poley"    REM COMPOSER ""    INDEX 00 29:28:21    INDEX 01 29:30:21  TRACK 09 AUDIO    TITLE "Life Keeps Spinning Me Round"    PERFORMER "Ted Poley"    REM COMPOSER ""    INDEX 00 32:46:68    INDEX 01 32:48:68  TRACK 10 AUDIO    TITLE "Where It Ends"    PERFORMER "Ted Poley"    REM COMPOSER ""    INDEX 00 37:30:12    INDEX 01 37:32:12  TRACK 11 AUDIO    TITLE "Will Ya"    PERFORMER "Ted Poley"    REM COMPOSER ""    INDEX 00 41:17:50    INDEX 01 41:19:50  TRACK 12 AUDIO    TITLE "Reprise (If I Can't Change Your Heart)"    PERFORMER "Ted Poley"    REM COMPOSER ""    INDEX 00 45:09:41    INDEX 01 45:11:41
--
Вы не можете начинать темы
Вы не можете отвечать на сообщения
Вы не можете редактировать свои сообщения
Вы не можете удалять свои сообщения
Вы не можете голосовать в опросах
Вы не можете прикреплять файлы к сообщениям
Вы можете скачивать файлы
!ВНИМАНИЕ!

Сайт не предоставляет электронные версии произведений, а занимается лишь коллекционированием и каталогизацией ссылок, присылаемых и публикуемых на форуме нашими читателями. Если вы являетесь правообладателем какого-либо представленного материала и не желаете, чтобы ссылка на него находилась в нашем каталоге, свяжитесь с нами, и мы незамедлительно удалим ее. Файлы для обмена на трекере предоставлены пользователями сайта, и администрация не несет ответственности за их содержание. Просьба не заливать файлы, защищенные авторскими правами, а также файлы нелегального содержания!

Искали программы, игры, дополнения, музыка mp3, аниме, аудио книги, журналы? Добро пожаловать на свободный торрент трекер Torrents, у нас можно скачать бесплатно, без смс и регистрации и прочих ограничений лучшие, отборные сборки программ, игр. Скачать торрентом не составит труда даже не опытному пользователю. Раздачи ежедневно обновляются, только лучшие и качественные раздачи, подробные описания и скриншоты. Огромная коллекция программ для работы со звуком, графикой, дизайном, а так же множество плагинов и инструментов к ним с подробной инструкцией и рекомендациями. Прошивки для навигаторов, карты. Разнообразные игры, для Windows, Linux. В коллекцие есть и старые игры любых жанров, Rpg, Action, Shooter, strategy Множество дополнений, модификаций, сценариев для популярных игр в жанре экш, рпг, гонки, стратегии, логические игры. Множество аддонов и сценариев для Microsoft Flight Simulator Большая коллекция книг, учебников. Если нет возможности купить печатное издание - смело скачивайте цифровую версию книги или, быть может, журнала. Не любите читать - можно загрузить бесплатно аудикнигу. Для веб дизайнеров и программистов так же найдется множество специализированного софта, таких как: редакторы с подсветкой, среды программирования, компоненты, системы управления базами данных, разнообразные скрипты и шаблоны. Не так давно у нас появился материал для автолюбителей и владельцев мото - оригинальные и неоригинальные каталоги запчастей, книги и журналы по ремонту и обслуживанию, видеоуроки, статьи по чип тюнингу, прошивкам. Процедура получения контента элементарная, достаточно просто скачать торрент файл и добавить его в загрузку в вашем торрент клиенте. Если у вас нет специального торрент клиента, вы можете его скачать у нас.