(Melodic Hard Rock) [CD] Hartmann (voice ex-At Vance) - Hands On The Wheel - 2018, FLAC (image+.cue), lossless 

Цитировать
Hartmann / Hands On The Wheel- Жанр: Melodic Hard Rock
Носитель: CD
Страна-производитель диска: EU
Год издания: 2018
Издатель-лейбл: Pride & Joy Music
Номер по каталогу: PJM11251
Страна исполнителя: UK
Аудиокодек: FLAC (*.flac)
Тип рипа: image+.cue
Битрейт аудио: lossless
Продолжительность: 01:01:43
Релизер: DimDimych (Спасибо!)
Наличие сканов: да

Треклист:
01. Don`t Want Back Down (5:21)
02. Your Best Excuse (4:17)
03. Cold As Stone (5:29)
04. Simple Man (4:37)
05. Last Plane Out (4:39)
06. Soulmates (6:59)
07. The Harder They Come (4:47)
08. Dream World (4:14)
09. I Remember (5:17)
10. Lost In Translation (6:11)
11. The Sky Is Falling (6:17)
12. Heart Of Gold (3:35)

Лог создания рипа

Exact Audio Copy V1.0 beta 6 from 9. April 2015
Отчёт EAC об извлечении, выполненном 27. сентября 2018, 20:41
Hartmann / Hands On The Wheel
Дисковод: PIONEER DVD-RW DVR-115D Adapter: 1 ID: 0
Режим чтения : ДостоверностьИспользование точного потока : ДаОтключение кэша аудио : ДаИспользование указателей C2 : Нет
Коррекция смещения при чтении : 48Способность читать области Lead-in и Lead-out : НетЗаполнение пропущенных сэмплов тишиной : ДаУдаление блоков с тишиной в начале и конце : НетПри вычислениях CRC использовались нулевые сэмплы : ДаИнтерфейс : Встроенный Win32-интерфейс для Win NT/2000
Выходной формат : Пользовательский кодировщикВыбранный битрейт : 768 kBit/sКачество : ВысокийДобавление ID3-тега : НетУтилита сжатия : C:\Program Files (x86)\Exact Audio Copy\FLAC\FLAC.EXEДополнительные параметры : -6 -V -T "ARTIST=%artist%" -T "TITLE=%title%" -T "ALBUM=%albumtitle%" -T "DATE=%year%" -T "TRACKNUMBER=%tracknr%" -T "GENRE=%genre%" -T "COMMENT=%comment%" -T "BAND=%albuminterpret%" -T "ALBUMARTIST=%albuminterpret%" -T "COMPOSER=%composer%" %haslyrics%--tag-from-file=LYRICS="%lyricsfile%"%haslyrics% -T "DISCNUMBER=%cdnumber%" -T "TOTALDISCS=%totalcds%" -T "TOTALTRACKS=%numtracks%" %hascover%--picture="%coverfile%"%hascover% %source% -o %dest%
TOC извлечённого CD
Трек | Старт | Длительность | Начальный сектор | Конечный сектор --------------------------------------------------------------------- 1 | 0:00.00 | 5:20.74 | 0 | 24073 2 | 5:20.74 | 4:17.05 | 24074 | 43353 3 | 9:38.04 | 5:29.35 | 43354 | 68063 4 | 15:07.39 | 4:36.70 | 68064 | 88833 5 | 19:44.34 | 4:38.71 | 88834 | 109754 6 | 24:23.30 | 6:59.35 | 109755 | 141214 7 | 31:22.65 | 4:47.05 | 141215 | 162744 8 | 36:09.70 | 4:14.15 | 162745 | 181809 9 | 40:24.10 | 5:16.50 | 181810 | 205559 10 | 45:40.60 | 6:10.51 | 205560 | 233360 11 | 51:51.36 | 6:16.69 | 233361 | 261629 12 | 58:08.30 | 3:34.57 | 261630 | 277736
Характеристики диапазона извлечения и сообщения об ошибках
Выбранный диапазон
Имя файла C:\Users\Дмитрий\Downloads\001\Hartmann\Hartmann - Hands On The Wheel.wav
Пиковый уровень 89.1 % Скорость извлечения 7.2 X Качество диапазона 99.9 % CRC теста 4BA552AC CRC копии 4BA552AC Копирование... OK
Ошибок не произошло
Конец отчёта
---- CUETools DB Plugin V2.1.6
[CTDB TOCID: ZQUHNAQ4hkoNPGv6yFJOwZoL6tI-] foundSubmit result: already submittedTrack | CTDB Status 1 | (10/10) Accurately ripped 2 | (10/10) Accurately ripped 3 | (10/10) Accurately ripped 4 | (10/10) Accurately ripped 5 | (10/10) Accurately ripped 6 | (10/10) Accurately ripped 7 | (10/10) Accurately ripped 8 | (10/10) Accurately ripped 9 | (10/10) Accurately ripped 10 | (10/10) Accurately ripped 11 | (10/10) Accurately ripped 12 | (10/10) Accurately ripped
==== Контрольная сумма отчёта A8BF9D8DBAFF82001EDD719BD3DB22DAED09A63831CC1BC6B2F60BF002BCAF2D ====

CUETools

[CUETools log; Date: 28.09.2018 12:10:30; Version: 2.1.6][CTDB TOCID: ZQUHNAQ4hkoNPGv6yFJOwZoL6tI-] found.Track | CTDB Status  1   | (10/10) Accurately ripped  2   | (10/10) Accurately ripped  3   | (10/10) Accurately ripped  4   | (10/10) Accurately ripped  5   | (10/10) Accurately ripped  6   | (10/10) Accurately ripped  7   | (10/10) Accurately ripped  8   | (10/10) Accurately ripped  9   | (10/10) Accurately ripped 10   | (10/10) Accurately ripped 11   | (10/10) Accurately ripped 12   | (10/10) Accurately ripped[AccurateRip ID: 001b6ffb-0101269a-9d0e770c] found.Track   [  CRC   |   V2   ] Status 01     [eaefa937|e11ea335] (0+4/4) Accurately ripped 02     [a3ed77e9|33462e88] (0+4/4) Accurately ripped 03     [3e3b1feb|189d1859] (0+4/4) Accurately ripped 04     [808998bf|9127d466] (0+4/4) Accurately ripped 05     [59fdb417|6d630fa8] (0+4/4) Accurately ripped 06     [8369f586|fa06c370] (0+4/4) Accurately ripped 07     [a4ff4e4f|e5ad48ae] (0+4/4) Accurately ripped 08     [30f3beb8|4052cbb2] (0+4/4) Accurately ripped 09     [dd721321|132582ea] (0+4/4) Accurately ripped 10     [21a23787|f8a86fcb] (0+4/4) Accurately ripped 11     [b34fb7f2|96383ffa] (0+4/4) Accurately ripped 12     [b83eee40|74c20df5] (0+4/4) Accurately ripped
Track Peak [ CRC32 ] [W/O NULL] [ LOG ] -- 89,1 [4BA552AC] [0165B248] CRC32 01 81,4 [914549F8] [01252997] 02 89,1 [6DE27942] [AD02F70E] 03 85,9 [B7F8CDBA] [D7012F30] 04 85,9 [D92EE767] [110E1D42] 05 86,0 [A3BCB5A7] [8D07BDE7] 06 85,9 [4D441DA8] [6F807520] 07 85,9 [96383248] [95B26AF2] 08 85,9 [921B3219] [B8546D9A] 09 86,0 [47565B90] [5EC5B8DF] 10 89,1 [9BC41347] [4F32B801] 11 89,1 [BDB4A98D] [E5E39888] 12 75,9 [9A255BD4] [B899798D]

DR

foobar2000 1.4 / Замер динамического диапазона (DR) 1.1.1Дата отчёта:  2018-09-28 12:10:19
--------------------------------------------------------------------------------Анализ: Hartmann / Hands On The Wheel--------------------------------------------------------------------------------
DR Пики RMS Продолжительность трека--------------------------------------------------------------------------------DR6 -1.78 дБ -8.64 дБ 5:21 01-Don`t Want Back DownDR7 -1.00 дБ -8.25 дБ 4:17 02-Your Best ExcuseDR6 -1.31 дБ -8.91 дБ 5:29 03-Cold As StoneDR6 -1.31 дБ -8.12 дБ 4:39 05-Last Plane OutDR6 -1.31 дБ -8.63 дБ 6:59 06-SoulmatesDR6 -1.31 дБ -8.33 дБ 4:47 07-The Harder They ComeDR6 -1.31 дБ -8.40 дБ 4:14 08-Dream WorldDR6 -1.30 дБ -8.55 дБ 5:17 09-I RememberDR6 -0.99 дБ -8.08 дБ 6:11 10-Lost In TranslationDR5 -0.99 дБ -8.12 дБ 6:17 11-The Sky Is FallingDR7 -2.39 дБ -12.06 дБ 3:35 12-Heart Of Gold--------------------------------------------------------------------------------
Количество треков: 11Реальные значения DR: DR6
Частота: 44100 ГцКаналов: 2Разрядность: 16Битрейт: 1016 кбит/сКодек: FLAC================================================================================Статистика для: 04-Simple ManКоличество сэмплов: 12212760Продолжительность: 4:37--------------------------------------------------------------------------------
Левый Правый
Пики: -1.31 дБ --- -1.31 дБСредний RMS: -9.68 дБ --- -9.76 дБDR канала: 6.73 дБ --- 6.85 дБ--------------------------------------------------------------------------------
Реальные значения DR: DR7
Частота: 44100 ГцКаналов: 2Разрядность: 16Битрейт: 1016 кбит/сКодек: FLAC================================================================================
Вы не можете начинать темы
Вы не можете отвечать на сообщения
Вы не можете редактировать свои сообщения
Вы не можете удалять свои сообщения
Вы не можете голосовать в опросах
Вы не можете прикреплять файлы к сообщениям
Вы можете скачивать файлы
!ВНИМАНИЕ!

Сайт не предоставляет электронные версии произведений, а занимается лишь коллекционированием и каталогизацией ссылок, присылаемых и публикуемых на форуме нашими читателями. Если вы являетесь правообладателем какого-либо представленного материала и не желаете, чтобы ссылка на него находилась в нашем каталоге, свяжитесь с нами, и мы незамедлительно удалим ее. Файлы для обмена на трекере предоставлены пользователями сайта, и администрация не несет ответственности за их содержание. Просьба не заливать файлы, защищенные авторскими правами, а также файлы нелегального содержания!

Искали программы, игры, дополнения, музыка mp3, аниме, аудио книги, журналы? Добро пожаловать на свободный торрент трекер Torrents, у нас можно скачать бесплатно, без смс и регистрации и прочих ограничений лучшие, отборные сборки программ, игр. Скачать торрентом не составит труда даже не опытному пользователю. Раздачи ежедневно обновляются, только лучшие и качественные раздачи, подробные описания и скриншоты. Огромная коллекция программ для работы со звуком, графикой, дизайном, а так же множество плагинов и инструментов к ним с подробной инструкцией и рекомендациями. Прошивки для навигаторов, карты. Разнообразные игры, для Windows, Linux. В коллекцие есть и старые игры любых жанров, Rpg, Action, Shooter, strategy Множество дополнений, модификаций, сценариев для популярных игр в жанре экш, рпг, гонки, стратегии, логические игры. Множество аддонов и сценариев для Microsoft Flight Simulator Большая коллекция книг, учебников. Если нет возможности купить печатное издание - смело скачивайте цифровую версию книги или, быть может, журнала. Не любите читать - можно загрузить бесплатно аудикнигу. Для веб дизайнеров и программистов так же найдется множество специализированного софта, таких как: редакторы с подсветкой, среды программирования, компоненты, системы управления базами данных, разнообразные скрипты и шаблоны. Не так давно у нас появился материал для автолюбителей и владельцев мото - оригинальные и неоригинальные каталоги запчастей, книги и журналы по ремонту и обслуживанию, видеоуроки, статьи по чип тюнингу, прошивкам. Процедура получения контента элементарная, достаточно просто скачать торрент файл и добавить его в загрузку в вашем торрент клиенте. Если у вас нет специального торрент клиента, вы можете его скачать у нас.