(Melodic Hard Rock) [CD] Snakes In Paradise - Step into the Light - 2018, FLAC (tracks+.cue), lossless 

Цитировать
Snakes In Paradise / Step into the Light
Жанр: Melodic Hard Rock
Носитель: CD
Страна-производитель диска (релиза): RU
Год издания: 2018
Издатель (лейбл): Frontiers
Номер по каталогу: FR CD 888
Страна исполнителя (группы): Sweden
Аудиокодек: FLAC (*.flac)
Тип рипа: tracks+.cue
Битрейт аудио: lossless
Продолжительность: 00:49:23
Источник (релизер): Свой рип
Наличие сканов в содержимом раздачи: да
Треклист:
01. Wings of Steel 4:12
02. Silent Sky 5:31
03. Will You Remember Me 3:45
04. Angelin 4:26
05. Living Without Your Love 4:05
06. If I Ever See the Sun 4:33
07. After the Fire is Gone 4:13
08. Love on the Otherside 3:36
09. Things 3:28
10. Liza 3:44
11. Life`s Been Good to You & Me 3:25
12. Step into the Light 4:25

Лог создания рипа

Exact Audio Copy V1.0 beta 3 from 29. August 2011
EAC extraction logfile from 28. September 2018, 19:23
Snakes In Paradise / Step Into The Light
Used drive : HL-DT-STDVDRAM GH24NSB0 Adapter: 0 ID: 0
Read mode : SecureUtilize accurate stream : YesDefeat audio cache : YesMake use of C2 pointers : No
Read offset correction : 6Overread into Lead-In and Lead-Out : NoFill up missing offset samples with silence : YesDelete leading and trailing silent blocks : NoNull samples used in CRC calculations : YesUsed interface : Native Win32 interface for Win NT & 2000Gap handling : Appended to previous track
Used output format : User Defined EncoderSelected bitrate : 896 kBit/sQuality : HighAdd ID3 tag : NoCommand line compressor : C:\Users\Alex\Desktop\EAC_1.0_beta_3_Portable_Multilingual\App\EAC\FLAC\flac.exeAdditional command line options : -6 -V -T "ARTIST=%artist%" -T "TITLE=%title%" -T "ALBUM=%albumtitle%" -T "DATE=%year%" -T "TRACKNUMBER=%tracknr%" -T "GENRE=%genre%" -T "COMMENT=%comment%" %hascover%--picture="%coverfile%"%hascover% %source% -o %dest%
TOC of the extracted CD
Track | Start | Length | Start sector | End sector --------------------------------------------------------- 1 | 0:00.00 | 4:12.35 | 0 | 18934 2 | 4:12.35 | 5:30.38 | 18935 | 43722 3 | 9:42.73 | 3:44.38 | 43723 | 60560 4 | 13:27.36 | 4:25.67 | 60561 | 80502 5 | 17:53.28 | 4:04.41 | 80503 | 98843 6 | 21:57.69 | 4:32.70 | 98844 | 119313 7 | 26:30.64 | 4:12.63 | 119314 | 138276 8 | 30:43.52 | 3:36.37 | 138277 | 154513 9 | 34:20.14 | 3:28.02 | 154514 | 170115 10 | 37:48.16 | 3:44.18 | 170116 | 186933 11 | 41:32.34 | 3:24.70 | 186934 | 202303 12 | 44:57.29 | 4:25.21 | 202304 | 222199
Track 1
Filename C:\Users\Alex\Desktop\Рипы\Новая папка (2)\01. Wings of Steel.wav
Pre-gap length 0:00:02.00
Peak level 97.6 % Extraction speed 1.2 X Track quality 100.0 % Test CRC 83C6BA41 Copy CRC 83C6BA41 Track not present in AccurateRip database Copy OK
Track 2
Filename C:\Users\Alex\Desktop\Рипы\Новая папка (2)\02. Silent sky.wav
Peak level 100.0 % Extraction speed 1.4 X Track quality 100.0 % Test CRC 37201CC4 Copy CRC 37201CC4 Track not present in AccurateRip database Copy OK
Track 3
Filename C:\Users\Alex\Desktop\Рипы\Новая папка (2)\03. Will You Remember Me.wav
Peak level 100.0 % Extraction speed 1.4 X Track quality 100.0 % Test CRC 2DC06913 Copy CRC 2DC06913 Track not present in AccurateRip database Copy OK
Track 4
Filename C:\Users\Alex\Desktop\Рипы\Новая папка (2)\04. Angelin.wav
Peak level 100.0 % Extraction speed 1.5 X Track quality 100.0 % Test CRC 49568DB0 Copy CRC 49568DB0 Track not present in AccurateRip database Copy OK
Track 5
Filename C:\Users\Alex\Desktop\Рипы\Новая папка (2)\05. Living Without Your Love.wav
Peak level 100.0 % Extraction speed 1.6 X Track quality 100.0 % Test CRC 9694F3B9 Copy CRC 9694F3B9 Track not present in AccurateRip database Copy OK
Track 6
Filename C:\Users\Alex\Desktop\Рипы\Новая папка (2)\06. If I Ever See The Sun Again.wav
Peak level 100.0 % Extraction speed 1.7 X Track quality 100.0 % Test CRC C217A419 Copy CRC C217A419 Track not present in AccurateRip database Copy OK
Track 7
Filename C:\Users\Alex\Desktop\Рипы\Новая папка (2)\07. After the fire is gone.wav
Peak level 100.0 % Extraction speed 1.8 X Track quality 100.0 % Test CRC 491ACCC9 Copy CRC 491ACCC9 Track not present in AccurateRip database Copy OK
Track 8
Filename C:\Users\Alex\Desktop\Рипы\Новая папка (2)\08. Love On The Other Side.wav
Peak level 100.0 % Extraction speed 1.8 X Track quality 100.0 % Test CRC 4101CA06 Copy CRC 4101CA06 Track not present in AccurateRip database Copy OK
Track 9
Filename C:\Users\Alex\Desktop\Рипы\Новая папка (2)\09. Things.wav
Peak level 100.0 % Extraction speed 1.8 X Track quality 100.0 % Test CRC 65747ECD Copy CRC 65747ECD Track not present in AccurateRip database Copy OK
Track 10
Filename C:\Users\Alex\Desktop\Рипы\Новая папка (2)\10. Liza.wav
Peak level 100.0 % Extraction speed 2.0 X Track quality 100.0 % Test CRC 31C8E220 Copy CRC 31C8E220 Track not present in AccurateRip database Copy OK
Track 11
Filename C:\Users\Alex\Desktop\Рипы\Новая папка (2)\11. Life`s Been Good To You & Me.wav
Peak level 100.0 % Extraction speed 2.0 X Track quality 100.0 % Test CRC 496B885C Copy CRC 496B885C Track not present in AccurateRip database Copy OK
Track 12
Filename C:\Users\Alex\Desktop\Рипы\Новая папка (2)\12. Step Into The Light.wav
Peak level 100.0 % Extraction speed 1.9 X Track quality 99.9 % Test CRC AAE24A74 Copy CRC AAE24A74 Track not present in AccurateRip database Copy OK
None of the tracks are present in the AccurateRip database
No errors occurred
End of status report
==== Log checksum 642DC7E0F31120F14F54DFC4826C7D99E0C315B01258931D681163FEC3FF5576 ====

Содержание индексной карты (.CUE)

REM GENRE "Hard Rock"REM DATE 2018REM DISCID AF0B920CREM COMMENT "ExactAudioCopy v1.0b3"PERFORMER "Snakes In Paradise"TITLE "Step Into The Light"FILE "01. Wings of Steel.wav" WAVE  TRACK 01 AUDIO    TITLE "Wings of Steel"    PERFORMER "Snakes In Paradise"    INDEX 01 00:00:00FILE "02. Silent sky.wav" WAVE  TRACK 02 AUDIO    TITLE "Silent sky"    PERFORMER "Snakes In Paradise"    INDEX 01 00:00:00FILE "03. Will You Remember Me.wav" WAVE  TRACK 03 AUDIO    TITLE "Will You Remember Me"    PERFORMER "Snakes In Paradise"    INDEX 01 00:00:00FILE "04. Angelin.wav" WAVE  TRACK 04 AUDIO    TITLE "Angelin"    PERFORMER "Snakes In Paradise"    INDEX 01 00:00:00FILE "05. Living Without Your Love.wav" WAVE  TRACK 05 AUDIO    TITLE "Living Without Your Love"    PERFORMER "Snakes In Paradise"    INDEX 01 00:00:00FILE "06. If I Ever See The Sun Again.wav" WAVE  TRACK 06 AUDIO    TITLE "If I Ever See The Sun Again"    PERFORMER "Snakes In Paradise"    INDEX 01 00:00:00FILE "07. After the fire is gone.wav" WAVE  TRACK 07 AUDIO    TITLE "After the fire is gone"    PERFORMER "Snakes In Paradise"    INDEX 01 00:00:00FILE "08. Love On The Other Side.wav" WAVE  TRACK 08 AUDIO    TITLE "Love On The Other Side"    PERFORMER "Snakes In Paradise"    INDEX 01 00:00:00FILE "09. Things.wav" WAVE  TRACK 09 AUDIO    TITLE "Things"    PERFORMER "Snakes In Paradise"    INDEX 01 00:00:00FILE "10. Liza.wav" WAVE  TRACK 10 AUDIO    TITLE "Liza"    PERFORMER "Snakes In Paradise"    INDEX 01 00:00:00FILE "11. Life`s Been Good To You & Me.wav" WAVE  TRACK 11 AUDIO    TITLE "Life`s Been Good To You & Me"    PERFORMER "Snakes In Paradise"    INDEX 01 00:00:00FILE "12. Step Into The Light.wav" WAVE  TRACK 12 AUDIO    TITLE "Step Into The Light"    PERFORMER "Snakes In Paradise"    INDEX 01 00:00:00
Доп. информация:
http://youtu.be/3klOLfFPfJY
http://youtu.be/VZpxPBmO-aE

Состав

Stefan Berggren - Lead vocals, acoustic guitar & keyboards
Thomas Jakobsson - Electric guitar & acoustic guitar
Stefan Zimman Jonsson - Lead guitar
Tomas Pomma Thorberg - Bass
Peter Petterson – Drums
Вы не можете начинать темы
Вы не можете отвечать на сообщения
Вы не можете редактировать свои сообщения
Вы не можете удалять свои сообщения
Вы не можете голосовать в опросах
Вы не можете прикреплять файлы к сообщениям
Вы можете скачивать файлы
!ВНИМАНИЕ!

Сайт не предоставляет электронные версии произведений, а занимается лишь коллекционированием и каталогизацией ссылок, присылаемых и публикуемых на форуме нашими читателями. Если вы являетесь правообладателем какого-либо представленного материала и не желаете, чтобы ссылка на него находилась в нашем каталоге, свяжитесь с нами, и мы незамедлительно удалим ее. Файлы для обмена на трекере предоставлены пользователями сайта, и администрация не несет ответственности за их содержание. Просьба не заливать файлы, защищенные авторскими правами, а также файлы нелегального содержания!

Искали программы, игры, дополнения, музыка mp3, аниме, аудио книги, журналы? Добро пожаловать на свободный торрент трекер Torrents, у нас можно скачать бесплатно, без смс и регистрации и прочих ограничений лучшие, отборные сборки программ, игр. Скачать торрентом не составит труда даже не опытному пользователю. Раздачи ежедневно обновляются, только лучшие и качественные раздачи, подробные описания и скриншоты. Огромная коллекция программ для работы со звуком, графикой, дизайном, а так же множество плагинов и инструментов к ним с подробной инструкцией и рекомендациями. Прошивки для навигаторов, карты. Разнообразные игры, для Windows, Linux. В коллекцие есть и старые игры любых жанров, Rpg, Action, Shooter, strategy Множество дополнений, модификаций, сценариев для популярных игр в жанре экш, рпг, гонки, стратегии, логические игры. Множество аддонов и сценариев для Microsoft Flight Simulator Большая коллекция книг, учебников. Если нет возможности купить печатное издание - смело скачивайте цифровую версию книги или, быть может, журнала. Не любите читать - можно загрузить бесплатно аудикнигу. Для веб дизайнеров и программистов так же найдется множество специализированного софта, таких как: редакторы с подсветкой, среды программирования, компоненты, системы управления базами данных, разнообразные скрипты и шаблоны. Не так давно у нас появился материал для автолюбителей и владельцев мото - оригинальные и неоригинальные каталоги запчастей, книги и журналы по ремонту и обслуживанию, видеоуроки, статьи по чип тюнингу, прошивкам. Процедура получения контента элементарная, достаточно просто скачать торрент файл и добавить его в загрузку в вашем торрент клиенте. Если у вас нет специального торрент клиента, вы можете его скачать у нас.