(Arena Rock) [WEB] Bon Jovi - Below The Borderline (The Classic 1995 Argentina Broadcast) - 2018, FLAC (tracks), lossless 

Цитировать
Bon Jovi - Below The Borderline- Жанр: Rock
Носитель: WEB
Год издания: 2018
Издатель-лейбл: Shockwaves
Страна исполнителя: USA
Аудиокодек: FLAC (*.flac)
Тип рипа: tracks
Битрейт аудио: lossless
Продолжительность: 01:52:59
Источник: Сеть - купить
Наличие сканов: нет

Треклист:
01. Rockin' All over the World (3:57)
02. Hey God (7:22)
03. Livin' on a Prayer / You Give Love a Bad Name (10:04)
04. Keep the Faith (7:31)
05. These Days (7:10)
06. I'll Be There for You (8:38)
07. Someday I'll Be Saturday Night (6:41)
08. Blood on Blood (5:45)
09. Something for the Pain (5:21)
10. Diamond Ring Damned (9:32)
11. Blaze of Glory (5:41)
12. Lay Your Hands on Me (9:09)
13. I'll Sleep When I'm Dead Bad Medicine (14:26)
14. Shout Bad Medicine (Reprise) (4:33)
15. Always (7:10)

auCDtect

PERFORMER: auCDtect Task Manager, ver. 1.6.0 RC1 build 1.6.0.1Copyright (c) 2008-2010 y-soft. All rights reservedhttp://y-soft.org
ANALYZER: auCDtect: CD records authenticity detector, version 0.8.2Copyright (c) 2004 Oleg Berngardt. All rights reserved.Copyright (c) 2004 Alexander Djourik. All rights reserved.
FILE: 15 Always.flac Size: 49484889 Hash: 377182FC3AED54EABA4034FFB19F94AA Accuracy: -m0 Conclusion: CDDA 94% Signature: 44452A3E77394C1BF29E743963F21353E7A88E4AFILE: 14 Shout Bad Medicine (Reprise).flac Size: 35638169 Hash: 1A43F51E6CCBB082C4C941CCE0815685 Accuracy: -m0 Conclusion: CDDA 99% Signature: 5124F8A6B0B0D75E35D05C6625C5CDD73E3214E0FILE: 13 I'll Sleep When I'm Dead Bad Medicine.flac Size: 107086154 Hash: AF6B010CF295768E0078426CF457EBA0 Accuracy: -m0 Conclusion: CDDA 100% Signature: 3B9E1FDCA661D73321374C85FE80BFBB09552838FILE: 12 Lay Your Hands on Me.flac Size: 65935231 Hash: 53761C64E2003D8B9AA390C5E3F538A6 Accuracy: -m0 Conclusion: CDDA 100% Signature: ACC6EB7367FC2446C9A3E2F0E7F7445D33C2A96FFILE: 11 Blaze of Glory.flac Size: 40365327 Hash: 1418E646F3FD7D4CA19F96E6D3215693 Accuracy: -m0 Conclusion: CDDA 100% Signature: 0CF3CCC38BEABD8F596ED9D337D3BBC8995347ACFILE: 10 Diamond Ring Damned.flac Size: 62429495 Hash: F69A381EA559A2AFFDB5BA54523B91CE Accuracy: -m0 Conclusion: CDDA 99% Signature: 3AC59EBDDA3B400E79F99ECA6A18F01D1B159610FILE: 09 Something for the Pain.flac Size: 38462212 Hash: 4238810712EE767FD833331873EA4344 Accuracy: -m0 Conclusion: CDDA 100% Signature: 1AFC9555960A29EEA0E120D2279BC148156F1868FILE: 08 Blood on Blood.flac Size: 41096975 Hash: 38A4DEA7306ACB1D8A5991D8EEEE496E Accuracy: -m0 Conclusion: CDDA 100% Signature: 348B1D5EF0417EE000CF22ABC3CBEAD57869AB0BFILE: 07 Someday I'll Be Saturday Night.flac Size: 47264380 Hash: BC5B691A48D6B624B4C7B95A56FF8DFA Accuracy: -m0 Conclusion: CDDA 100% Signature: 25750D5328BC3533589E2D206B598CDD865BA2AFFILE: 06 I'll Be There for You.flac Size: 61845141 Hash: CA53E42401F20281AB288FDBBBC2B801 Accuracy: -m0 Conclusion: CDDA 100% Signature: 4DFF90BF4F95C62F5A736EF2001B59DC3CEF27BCFILE: 05 These Days.flac Size: 48692391 Hash: B26FB1D3F03CA3AA87C042643EA44425 Accuracy: -m0 Conclusion: CDDA 100% Signature: C41C68BCAC9D6CBBCD208F5532B17F238EFD3EB7FILE: 04 Keep the Faith.flac Size: 54794755 Hash: 5285ED7B04B1DF355E562D0DBCC84D1E Accuracy: -m0 Conclusion: CDDA 100% Signature: 5E045721BDFFD7C15FF508606E1604B6068C08ECFILE: 03 Livin' on a Prayer You Give Love a Bad Name.flac Size: 75102092 Hash: 56E9CC4BBA7917B51840A33457F4C056 Accuracy: -m0 Conclusion: CDDA 100% Signature: E432A8AA4EF14D32A5F9AC5E73F5EC21173DC888FILE: 02 Hey God.flac Size: 53951750 Hash: ACF285FF9D9DDEC9A1465D554D8A31D3 Accuracy: -m0 Conclusion: CDDA 100% Signature: 06285C91239496EF25333B8505560755F5877831FILE: 01 Rockin' All over the World.flac Size: 29594737 Hash: 6FC6B6B8D91AA9B31850A3CE44653973 Accuracy: -m0 Conclusion: CDDA 99% Signature: 7BDC3049421CC33BCAA6915FC3CCBDF25C8B363D

DR

foobar2000 1.4 / Замер динамического диапазона (DR) 1.1.1Дата отчёта:  2018-10-09 09:56:23
--------------------------------------------------------------------------------Анализ: Bon Jovi / Below the Borderline--------------------------------------------------------------------------------
DR Пики RMS Продолжительность трека--------------------------------------------------------------------------------DR8 0.00 дБ -9.33 дБ 3:57 01-Rockin' All over the WorldDR8 0.00 дБ -9.30 дБ 7:22 02-Hey GodDR7 0.00 дБ -9.10 дБ 10:04 03-Livin' on a Prayer You Give Love a Bad NameDR7 0.00 дБ -8.51 дБ 7:31 04-Keep the FaithDR8 0.00 дБ -10.35 дБ 7:10 05-These DaysDR7 0.00 дБ -9.85 дБ 8:38 06-I'll Be There for YouDR8 0.00 дБ -10.85 дБ 6:41 07-Someday I'll Be Saturday NightDR8 0.00 дБ -10.01 дБ 5:45 08-Blood on BloodDR9 0.00 дБ -11.03 дБ 5:21 09-Something for the PainDR8 0.00 дБ -11.91 дБ 9:32 10-Diamond Ring DamnedDR8 0.00 дБ -11.24 дБ 5:41 11-Blaze of GloryDR8 0.00 дБ -10.46 дБ 9:09 12-Lay Your Hands on MeDR8 0.00 дБ -9.04 дБ 14:26 13-I'll Sleep When I'm Dead Bad MedicineDR7 0.00 дБ -8.18 дБ 4:33 14-Shout Bad Medicine (Reprise)DR9 0.00 дБ -11.30 дБ 7:10 15-Always--------------------------------------------------------------------------------
Количество треков: 15Реальные значения DR: DR8
Частота: 44100 ГцКаналов: 2Разрядность: 16Битрейт: 919 кбит/сКодек: FLAC================================================================================
Вы не можете начинать темы
Вы не можете отвечать на сообщения
Вы не можете редактировать свои сообщения
Вы не можете удалять свои сообщения
Вы не можете голосовать в опросах
Вы не можете прикреплять файлы к сообщениям
Вы можете скачивать файлы
!ВНИМАНИЕ!

Сайт не предоставляет электронные версии произведений, а занимается лишь коллекционированием и каталогизацией ссылок, присылаемых и публикуемых на форуме нашими читателями. Если вы являетесь правообладателем какого-либо представленного материала и не желаете, чтобы ссылка на него находилась в нашем каталоге, свяжитесь с нами, и мы незамедлительно удалим ее. Файлы для обмена на трекере предоставлены пользователями сайта, и администрация не несет ответственности за их содержание. Просьба не заливать файлы, защищенные авторскими правами, а также файлы нелегального содержания!

Искали программы, игры, дополнения, музыка mp3, аниме, аудио книги, журналы? Добро пожаловать на свободный торрент трекер Torrents, у нас можно скачать бесплатно, без смс и регистрации и прочих ограничений лучшие, отборные сборки программ, игр. Скачать торрентом не составит труда даже не опытному пользователю. Раздачи ежедневно обновляются, только лучшие и качественные раздачи, подробные описания и скриншоты. Огромная коллекция программ для работы со звуком, графикой, дизайном, а так же множество плагинов и инструментов к ним с подробной инструкцией и рекомендациями. Прошивки для навигаторов, карты. Разнообразные игры, для Windows, Linux. В коллекцие есть и старые игры любых жанров, Rpg, Action, Shooter, strategy Множество дополнений, модификаций, сценариев для популярных игр в жанре экш, рпг, гонки, стратегии, логические игры. Множество аддонов и сценариев для Microsoft Flight Simulator Большая коллекция книг, учебников. Если нет возможности купить печатное издание - смело скачивайте цифровую версию книги или, быть может, журнала. Не любите читать - можно загрузить бесплатно аудикнигу. Для веб дизайнеров и программистов так же найдется множество специализированного софта, таких как: редакторы с подсветкой, среды программирования, компоненты, системы управления базами данных, разнообразные скрипты и шаблоны. Не так давно у нас появился материал для автолюбителей и владельцев мото - оригинальные и неоригинальные каталоги запчастей, книги и журналы по ремонту и обслуживанию, видеоуроки, статьи по чип тюнингу, прошивкам. Процедура получения контента элементарная, достаточно просто скачать торрент файл и добавить его в загрузку в вашем торрент клиенте. Если у вас нет специального торрент клиента, вы можете его скачать у нас.