(Melodic Rock/AOR) [CD] Groundbreaker (FM, Work Of Art) - Groundbreaker (Japanese Edition) - 2018, FLAC (image+.cue), lossless 

Цитировать
Groundbreaker / Groundbreaker (2018)
Жанр: Melodic Rock / AOR
Носитель: CD
Страна-производитель диска (релиза): Japan
Год издания: 2018
Издатель (лейбл): King Records
Номер по каталогу: KICP-1937
Страна исполнителя (группы): UK / Sweden
Аудиокодек: FLAC (*.flac)
Тип рипа: image+.cue
Битрейт аудио: lossless
Продолжительность: 48:15
Источник (релизер): собственный рип
Наличие сканов в содержимом раздачи: да
Треклист:
1. Over My Shoulder - 4:03
2. Will It Make You Love Me - 4:16
3. Eighteen Til I Die - 4:16
4. Only Time Will Tell - 3:46
5. Tonight - 3:48
6. Standing Up For Love - 3:53
7. Something Worth Fighting For - 4:22
8. The Sound Of A Broken Heart - 3:33
9. The First Time - 4:39
10. The Days Of Our Life - 3:33
11. The Way It Goes - 3:46
12. Something Worth Fighting For (Acoustic Version) - 4:19

Лог создания рипа

Exact Audio Copy V1.0 beta 3 from 29. August 2011
EAC extraction logfile from 6. October 2018, 23:14
Groundbreaker / Groundbreaker
Used drive : SlimtypeDVD A DS8A5SH Adapter: 0 ID: 0
Read mode : SecureUtilize accurate stream : YesDefeat audio cache : YesMake use of C2 pointers : No
Read offset correction : 6Overread into Lead-In and Lead-Out : NoFill up missing offset samples with silence : YesDelete leading and trailing silent blocks : NoNull samples used in CRC calculations : YesUsed interface : Installed external ASPI interface
Used output format : User Defined EncoderSelected bitrate : 320 kBit/sQuality : HighAdd ID3 tag : NoCommand line compressor : C:\Program Files (x86)\Exact Audio Copy\Flac\flac.exeAdditional command line options : -V -8 -T "Date=%year%" -T "Genre=%genre%" %source%
TOC of the extracted CD
Track | Start | Length | Start sector | End sector --------------------------------------------------------- 1 | 0:00.00 | 4:03.18 | 0 | 18242 2 | 4:03.18 | 4:16.29 | 18243 | 37471 3 | 8:19.47 | 4:16.29 | 37472 | 56700 4 | 12:36.01 | 3:45.69 | 56701 | 73644 5 | 16:21.70 | 3:48.11 | 73645 | 90755 6 | 20:10.06 | 3:53.26 | 90756 | 108256 7 | 24:03.32 | 4:22.25 | 108257 | 127931 8 | 28:25.57 | 3:33.22 | 127932 | 143928 9 | 31:59.04 | 4:38.50 | 143929 | 164828 10 | 36:37.54 | 3:32.41 | 164829 | 180769 11 | 40:10.20 | 3:45.69 | 180770 | 197713 12 | 43:56.14 | 4:18.57 | 197714 | 217120
Range status and errors
Selected range
Filename D:\My Music\Grounbreaker - 2018 Grounbreaker\Groundbreaker - Groundbreaker.wav
Peak level 98.8 % Extraction speed 1.7 X Range quality 100.0 % Test CRC DB45BB16 Copy CRC DB45BB16 Copy OK
No errors occurred
AccurateRip summary
Track 1 accurately ripped (confidence 1) [E0BF7844] (AR v2)Track 2 accurately ripped (confidence 1) [72EB577E] (AR v2)Track 3 accurately ripped (confidence 1) [B27E03FE] (AR v2)Track 4 accurately ripped (confidence 1) [34007651] (AR v2)Track 5 accurately ripped (confidence 1) [8EF1DB9F] (AR v2)Track 6 accurately ripped (confidence 1) [C45FF225] (AR v2)Track 7 accurately ripped (confidence 1) [5FC751B3] (AR v2)Track 8 accurately ripped (confidence 1) [6B38ED5A] (AR v2)Track 9 accurately ripped (confidence 1) [EA98911C] (AR v2)Track 10 accurately ripped (confidence 1) [C1653399] (AR v2)Track 11 accurately ripped (confidence 1) [9D73A5EF] (AR v2)Track 12 accurately ripped (confidence 1) [F32266DC] (AR v2)
All tracks accurately ripped
End of status report
==== Log checksum 89D6697708F8977F0DC7DBACBFAA7329A2F154949B43B31DF2FB3FDF663C3F11 ====

Состав

Steve Overland (FM, Shadowman) - vocals
Robert Sall (Work Of Art, W.E.T) - guitars
Nalley Pahlsson (Last Autumn's Dream) - bass
Herman Furin (Work Of Art) - drums
Alessandro Del Vecchio - keyboards
Overland - Дискография 2008-2016 (4 альбома), FLAC (image+.cue), lossless
FM - Дискография 1986-2016 (Дискография, 17 альбомов, 21 CD), FLAC (image+.cue), lossless
Work Of Art - Дискография 2008-2014 (Японские издания, 3 альбома), FLAC (image+.cue), lossless
Вы не можете начинать темы
Вы не можете отвечать на сообщения
Вы не можете редактировать свои сообщения
Вы не можете удалять свои сообщения
Вы не можете голосовать в опросах
Вы не можете прикреплять файлы к сообщениям
Вы можете скачивать файлы
!ВНИМАНИЕ!

Сайт не предоставляет электронные версии произведений, а занимается лишь коллекционированием и каталогизацией ссылок, присылаемых и публикуемых на форуме нашими читателями. Если вы являетесь правообладателем какого-либо представленного материала и не желаете, чтобы ссылка на него находилась в нашем каталоге, свяжитесь с нами, и мы незамедлительно удалим ее. Файлы для обмена на трекере предоставлены пользователями сайта, и администрация не несет ответственности за их содержание. Просьба не заливать файлы, защищенные авторскими правами, а также файлы нелегального содержания!

Искали программы, игры, дополнения, музыка mp3, аниме, аудио книги, журналы? Добро пожаловать на свободный торрент трекер Torrents, у нас можно скачать бесплатно, без смс и регистрации и прочих ограничений лучшие, отборные сборки программ, игр. Скачать торрентом не составит труда даже не опытному пользователю. Раздачи ежедневно обновляются, только лучшие и качественные раздачи, подробные описания и скриншоты. Огромная коллекция программ для работы со звуком, графикой, дизайном, а так же множество плагинов и инструментов к ним с подробной инструкцией и рекомендациями. Прошивки для навигаторов, карты. Разнообразные игры, для Windows, Linux. В коллекцие есть и старые игры любых жанров, Rpg, Action, Shooter, strategy Множество дополнений, модификаций, сценариев для популярных игр в жанре экш, рпг, гонки, стратегии, логические игры. Множество аддонов и сценариев для Microsoft Flight Simulator Большая коллекция книг, учебников. Если нет возможности купить печатное издание - смело скачивайте цифровую версию книги или, быть может, журнала. Не любите читать - можно загрузить бесплатно аудикнигу. Для веб дизайнеров и программистов так же найдется множество специализированного софта, таких как: редакторы с подсветкой, среды программирования, компоненты, системы управления базами данных, разнообразные скрипты и шаблоны. Не так давно у нас появился материал для автолюбителей и владельцев мото - оригинальные и неоригинальные каталоги запчастей, книги и журналы по ремонту и обслуживанию, видеоуроки, статьи по чип тюнингу, прошивкам. Процедура получения контента элементарная, достаточно просто скачать торрент файл и добавить его в загрузку в вашем торрент клиенте. Если у вас нет специального торрент клиента, вы можете его скачать у нас.