(Melodic Hard Rock/ AOR) [WEB] Hank Erix - Nothing But Trouble - 2018, FLAC (tracks), lossless 

Цитировать
Hank Erix - Nothing But Trouble- Жанр: Melodic Rock
Носитель: WEB
Год издания: 2018
Издатель-лейбл: Livewire
Страна исполнителя: Sweden
Аудиокодек: FLAC (*.flac)
Тип рипа: tracks
Битрейт аудио: lossless
Продолжительность: 00:43:41
Источник: Сеть - купить
Наличие сканов: нет

Треклист:
01. Turn to Darkness (4:31)
02. Last Chance to Love (4:13)
03. Fortune Hunter (4:49)
04. Way to Go (3:57)
05. Shadowdance (4:18)
06. Affair of the Heart (4:02)
07. Electricity (3:56)
08. Freak (5:13)
09. Giving up on Love (4:02)
10. For the Restless and the Young (Acoustic) (4:42)

auCDtect

PERFORMER: auCDtect Task Manager, ver. 1.6.0 RC1 build 1.6.0.1Copyright (c) 2008-2010 y-soft. All rights reservedhttp://y-soft.org
ANALYZER: auCDtect: CD records authenticity detector, version 0.8.2Copyright (c) 2004 Oleg Berngardt. All rights reserved.Copyright (c) 2004 Alexander Djourik. All rights reserved.
FILE: 10 For the Restless and the Young (Acoustic).flac Size: 30130278 Hash: BC2EADDD6903AA49FFBA9E9D6EB83A8D Accuracy: -m0 Conclusion: CDDA 100% Signature: B3A2D1F373605E25F164068088E0A5EDD9F28C0AFILE: 09 Giving up on Love.flac Size: 29281890 Hash: 0E632D0B9395E2A27D271A40D5DD9655 Accuracy: -m0 Conclusion: CDDA 100% Signature: 3658275F6D7451BBBC9438E4621F8E7B0700376CFILE: 08 Freak.flac Size: 38787058 Hash: D852700D782A32A8421172CFF73DE217 Accuracy: -m0 Conclusion: MPEG 95% Signature: AA09C8DEEF9118E5AED93F0BCB497D017E97B91FFILE: 07 Electricity.flac Size: 29867688 Hash: CD31912791D11014B51B676BB4FCF75B Accuracy: -m0 Conclusion: CDDA 99% Signature: 85615B08B8E8E49F489C7B40157F2D71E2ACA7C1FILE: 06 Affair of the Heart.flac Size: 30846760 Hash: DD1412BCCE607F50774052D2E3295112 Accuracy: -m0 Conclusion: MPEG 95% Signature: C023B3BE1C25C443B9CF668FE46A9297635F5209FILE: 05 Shadowdance.flac Size: 31869369 Hash: F58018EE12150F7B0D943D098DA269C8 Accuracy: -m0 Conclusion: CDDA 99% Signature: A4FF5C3344712A2ADC5B7DA1ABB652CE0239A729FILE: 04 Way to Go.flac Size: 29685153 Hash: AC4AB0494009F675D53055B54D7B3BE6 Accuracy: -m0 Conclusion: CDDA 100% Signature: EF76A9DEC363674E206CF20827C7BF0A40086FC5FILE: 03 Fortune Hunter.flac Size: 35453149 Hash: E5D2CF85D4197C1C05470BA8D41DC4D3 Accuracy: -m0 Conclusion: CDDA 100% Signature: F90B1CF812304EEAA233B43999D628C447530313FILE: 02 Last Chance to Love.flac Size: 32615035 Hash: E6372C54EAFE92D78D1F39E23EBA63C2 Accuracy: -m0 Conclusion: MPEG 95% Signature: 0F8F29B09A08EAE8ADD36076A24BC6839ED92EA9FILE: 01 Turn to Darkness.flac Size: 34769051 Hash: A212E897ED3CFF90ADD3BC27DB9EE422 Accuracy: -m0 Conclusion: MPEG 95% Signature: F259EFB1981025C29B1F318C063C2EA41EAAEE19

DR

foobar2000 1.4 / Замер динамического диапазона (DR) 1.1.1Дата отчёта:  2018-10-04 16:42:30
--------------------------------------------------------------------------------Анализ: Hank Erix / Nothing But Trouble--------------------------------------------------------------------------------
DR Пики RMS Продолжительность трека--------------------------------------------------------------------------------DR7 0.00 дБ -8.38 дБ 4:31 01-Turn to DarknessDR7 -0.01 дБ -8.39 дБ 4:13 02-Last Chance to LoveDR8 -0.40 дБ -9.81 дБ 4:49 03-Fortune HunterDR7 -0.13 дБ -8.34 дБ 3:57 04-Way to GoDR8 -0.42 дБ -10.55 дБ 4:18 05-ShadowdanceDR7 -0.19 дБ -9.08 дБ 4:02 06-Affair of the HeartDR7 -0.39 дБ -8.87 дБ 3:56 07-ElectricityDR8 -0.30 дБ -10.25 дБ 5:13 08-FreakDR8 -0.50 дБ -10.75 дБ 4:02 09-Giving up on LoveDR7 -0.35 дБ -9.96 дБ 4:42 10-For the Restless and the Young (Acoustic)--------------------------------------------------------------------------------
Количество треков: 10Реальные значения DR: DR7
Частота: 44100 ГцКаналов: 2Разрядность: 16Битрейт: 833 кбит/сКодек: FLAC================================================================================
Вы не можете начинать темы
Вы не можете отвечать на сообщения
Вы не можете редактировать свои сообщения
Вы не можете удалять свои сообщения
Вы не можете голосовать в опросах
Вы не можете прикреплять файлы к сообщениям
Вы можете скачивать файлы
!ВНИМАНИЕ!

Сайт не предоставляет электронные версии произведений, а занимается лишь коллекционированием и каталогизацией ссылок, присылаемых и публикуемых на форуме нашими читателями. Если вы являетесь правообладателем какого-либо представленного материала и не желаете, чтобы ссылка на него находилась в нашем каталоге, свяжитесь с нами, и мы незамедлительно удалим ее. Файлы для обмена на трекере предоставлены пользователями сайта, и администрация не несет ответственности за их содержание. Просьба не заливать файлы, защищенные авторскими правами, а также файлы нелегального содержания!

Искали программы, игры, дополнения, музыка mp3, аниме, аудио книги, журналы? Добро пожаловать на свободный торрент трекер Torrents, у нас можно скачать бесплатно, без смс и регистрации и прочих ограничений лучшие, отборные сборки программ, игр. Скачать торрентом не составит труда даже не опытному пользователю. Раздачи ежедневно обновляются, только лучшие и качественные раздачи, подробные описания и скриншоты. Огромная коллекция программ для работы со звуком, графикой, дизайном, а так же множество плагинов и инструментов к ним с подробной инструкцией и рекомендациями. Прошивки для навигаторов, карты. Разнообразные игры, для Windows, Linux. В коллекцие есть и старые игры любых жанров, Rpg, Action, Shooter, strategy Множество дополнений, модификаций, сценариев для популярных игр в жанре экш, рпг, гонки, стратегии, логические игры. Множество аддонов и сценариев для Microsoft Flight Simulator Большая коллекция книг, учебников. Если нет возможности купить печатное издание - смело скачивайте цифровую версию книги или, быть может, журнала. Не любите читать - можно загрузить бесплатно аудикнигу. Для веб дизайнеров и программистов так же найдется множество специализированного софта, таких как: редакторы с подсветкой, среды программирования, компоненты, системы управления базами данных, разнообразные скрипты и шаблоны. Не так давно у нас появился материал для автолюбителей и владельцев мото - оригинальные и неоригинальные каталоги запчастей, книги и журналы по ремонту и обслуживанию, видеоуроки, статьи по чип тюнингу, прошивкам. Процедура получения контента элементарная, достаточно просто скачать торрент файл и добавить его в загрузку в вашем торрент клиенте. Если у вас нет специального торрент клиента, вы можете его скачать у нас.