(Techno, Electro, Breaks) [CD] VA - DJ Лена Попова - Каzантип Z004. Улетай - 2004, FLAC (image+.cue), lossless 

Цитировать
DJ Лена Попова - Каzантип Z004. Улетай
Жанр: Techno, Electro, Breaks
Носитель: CD
Год издания: 2004
Издатель (лейбл): Республика Z
Номер по каталогу: 05611-02
Аудиокодек: FLAC (*.flac)
Тип рипа: image+.cue
Битрейт аудио: lossless
Продолжительность: 01:18:44
Источник (релизер): свой рип
Наличие сканов в содержимом раздачи: да
Треклист:
01. Dj Лена Попова - Z-Games - Улетай (0:51)
02. Dj Лена Попова - Z-Games - Улетай (5:40)
03. Dj Лена Попова - Z-Games - Улетай (5:03)
04. Dj Лена Попова - Z-Games - Улетай (4:51)
05. Dj Лена Попова - Z-Games - Улетай (5:09)
06. Dj Лена Попова - Z-Games - Улетай (8:37)
07. Dj Лена Попова - Z-Games - Улетай (5:29)
08. Dj Лена Попова - Z-Games - Улетай (4:26)
09. Dj Лена Попова - Z-Games - Улетай (3:07)
10. Dj Лена Попова - Z-Games - Улетай (7:00)
11. Dj Лена Попова - Z-Games - Улетай (4:30)
12. Dj Лена Попова - Z-Games - Улетай (5:01)
13. Dj Лена Попова - Z-Games - Улетай (3:38)
14. Dj Лена Попова - Z-Games - Улетай (5:46)
15. Dj Лена Попова - Z-Games - Улетай (5:01)
16. Dj Лена Попова - Z-Games - Улетай (4:35)

Лог создания рипа

Exact Audio Copy V1.3 from 2. September 2016
EAC extraction logfile from 12. June 2018, 16:28
Dj Лена Попова / Z-Games - Улетай
Used drive : ASUS DRW-24B5ST Adapter: 6 ID: 0
Read mode : SecureUtilize accurate stream : YesDefeat audio cache : YesMake use of C2 pointers : No
Read offset correction : 6Overread into Lead-In and Lead-Out : NoFill up missing offset samples with silence : YesDelete leading and trailing silent blocks : NoNull samples used in CRC calculations : YesUsed interface : Installed external ASPI interface
Used output format : User Defined EncoderSelected bitrate : 128 kBit/sQuality : HighAdd ID3 tag : NoCommand line compressor : D:\flac-1.3.2-win\win64\flac.exeAdditional command line options : -V -8 -T "Date=%year%" -T "COMMENT=ripped by Andy aka yetiisyou" -T "Genre=%genre%" %source%
TOC of the extracted CD
Track | Start | Length | Start sector | End sector --------------------------------------------------------- 1 | 0:00.00 | 0:50.63 | 0 | 3812 2 | 0:50.63 | 5:39.58 | 3813 | 29295 3 | 6:30.46 | 5:03.26 | 29296 | 52046 4 | 11:33.72 | 4:50.53 | 52047 | 73849 5 | 16:24.50 | 5:08.52 | 73850 | 97001 6 | 21:33.27 | 8:37.16 | 97002 | 135792 7 | 30:10.43 | 5:29.01 | 135793 | 160468 8 | 35:39.44 | 4:25.57 | 160469 | 180400 9 | 40:05.26 | 3:06.70 | 180401 | 194420 10 | 43:12.21 | 6:59.51 | 194421 | 225896 11 | 50:11.72 | 4:29.47 | 225897 | 246118 12 | 54:41.44 | 5:01.07 | 246119 | 268700 13 | 59:42.51 | 3:38.28 | 268701 | 285078 14 | 63:21.04 | 5:46.31 | 285079 | 311059 15 | 69:07.35 | 5:01.12 | 311060 | 333646 16 | 74:08.47 | 4:34.72 | 333647 | 354268
Range status and errors
Selected range
Filename E:\Ripped by Andy aka yetiisyou\VA - Z-Games - Dj Лена Попова - Улетай [05611-02] [2003]\Dj Лена Попова - Z-Games - Улетай.wav
Peak level 100.0 % Extraction speed 8.4 X Range quality 100.0 % Test CRC 34BD9627 Copy CRC 34BD9627 Copy OK
No errors occurred
AccurateRip summary
Track 1 not present in databaseTrack 2 not present in databaseTrack 3 not present in databaseTrack 4 not present in databaseTrack 5 not present in databaseTrack 6 not present in databaseTrack 7 not present in databaseTrack 8 not present in databaseTrack 9 not present in databaseTrack 10 not present in databaseTrack 11 not present in databaseTrack 12 not present in databaseTrack 13 not present in databaseTrack 14 not present in databaseTrack 15 not present in databaseTrack 16 not present in database
None of the tracks are present in the AccurateRip database
End of status report
---- CUETools DB Plugin V2.1.6
[CTDB TOCID: lt4GGkLYZczLnZby_tOT68rsCdQ-] disk not present in databaseSubmit result: lt4GGkLYZczLnZby_tOT68rsCdQ- has been uploaded
==== Log checksum 9B660E4B45F9A5A3B7328B76322FA72C2681C0796CD5E4ED2070490F09C0EA82 ====

Содержание индексной карты (.CUE)

REM DATE 2003REM DISCID E0127310REM COMMENT "ExactAudioCopy v1.3"PERFORMER "Dj Лена Попова"TITLE "Z-Games - Улетай"REM COMPOSER ""FILE "Dj Лена Попова - Z-Games - Улетай.flac" WAVE  TRACK 01 AUDIO    TITLE "Z-Games - Улетай"    PERFORMER "Dj Лена Попова"    REM COMPOSER ""    FLAGS DCP    INDEX 01 00:00:00  TRACK 02 AUDIO    TITLE "Z-Games - Улетай"    PERFORMER "Dj Лена Попова"    REM COMPOSER ""    FLAGS DCP    INDEX 01 00:50:63  TRACK 03 AUDIO    TITLE "Z-Games - Улетай"    PERFORMER "Dj Лена Попова"    REM COMPOSER ""    FLAGS DCP    INDEX 01 06:30:46  TRACK 04 AUDIO    TITLE "Z-Games - Улетай"    PERFORMER "Dj Лена Попова"    REM COMPOSER ""    FLAGS DCP    INDEX 01 11:33:72  TRACK 05 AUDIO    TITLE "Z-Games - Улетай"    PERFORMER "Dj Лена Попова"    REM COMPOSER ""    FLAGS DCP    INDEX 01 16:24:50  TRACK 06 AUDIO    TITLE "Z-Games - Улетай"    PERFORMER "Dj Лена Попова"    REM COMPOSER ""    FLAGS DCP    INDEX 01 21:33:27  TRACK 07 AUDIO    TITLE "Z-Games - Улетай"    PERFORMER "Dj Лена Попова"    REM COMPOSER ""    FLAGS DCP    INDEX 01 30:10:43  TRACK 08 AUDIO    TITLE "Z-Games - Улетай"    PERFORMER "Dj Лена Попова"    REM COMPOSER ""    FLAGS DCP    INDEX 01 35:39:44  TRACK 09 AUDIO    TITLE "Z-Games - Улетай"    PERFORMER "Dj Лена Попова"    REM COMPOSER ""    FLAGS DCP    INDEX 01 40:05:26  TRACK 10 AUDIO    TITLE "Z-Games - Улетай"    PERFORMER "Dj Лена Попова"    REM COMPOSER ""    FLAGS DCP    INDEX 01 43:12:21  TRACK 11 AUDIO    TITLE "Z-Games - Улетай"    PERFORMER "Dj Лена Попова"    REM COMPOSER ""    FLAGS DCP    INDEX 01 50:11:72  TRACK 12 AUDIO    TITLE "Z-Games - Улетай"    PERFORMER "Dj Лена Попова"    REM COMPOSER ""    FLAGS DCP    INDEX 01 54:41:44  TRACK 13 AUDIO    TITLE "Z-Games - Улетай"    PERFORMER "Dj Лена Попова"    REM COMPOSER ""    FLAGS DCP    INDEX 01 59:42:51  TRACK 14 AUDIO    TITLE "Z-Games - Улетай"    PERFORMER "Dj Лена Попова"    REM COMPOSER ""    FLAGS DCP    INDEX 01 63:21:04  TRACK 15 AUDIO    TITLE "Z-Games - Улетай"    PERFORMER "Dj Лена Попова"    REM COMPOSER ""    FLAGS DCP    INDEX 01 69:07:35  TRACK 16 AUDIO    TITLE "Z-Games - Улетай"    PERFORMER "Dj Лена Попова"    REM COMPOSER ""    FLAGS DCP    INDEX 01 74:08:47
Вы не можете начинать темы
Вы не можете отвечать на сообщения
Вы не можете редактировать свои сообщения
Вы не можете удалять свои сообщения
Вы не можете голосовать в опросах
Вы не можете прикреплять файлы к сообщениям
Вы можете скачивать файлы
!ВНИМАНИЕ!

Сайт не предоставляет электронные версии произведений, а занимается лишь коллекционированием и каталогизацией ссылок, присылаемых и публикуемых на форуме нашими читателями. Если вы являетесь правообладателем какого-либо представленного материала и не желаете, чтобы ссылка на него находилась в нашем каталоге, свяжитесь с нами, и мы незамедлительно удалим ее. Файлы для обмена на трекере предоставлены пользователями сайта, и администрация не несет ответственности за их содержание. Просьба не заливать файлы, защищенные авторскими правами, а также файлы нелегального содержания!

Искали программы, игры, дополнения, музыка mp3, аниме, аудио книги, журналы? Добро пожаловать на свободный торрент трекер Torrents, у нас можно скачать бесплатно, без смс и регистрации и прочих ограничений лучшие, отборные сборки программ, игр. Скачать торрентом не составит труда даже не опытному пользователю. Раздачи ежедневно обновляются, только лучшие и качественные раздачи, подробные описания и скриншоты. Огромная коллекция программ для работы со звуком, графикой, дизайном, а так же множество плагинов и инструментов к ним с подробной инструкцией и рекомендациями. Прошивки для навигаторов, карты. Разнообразные игры, для Windows, Linux. В коллекцие есть и старые игры любых жанров, Rpg, Action, Shooter, strategy Множество дополнений, модификаций, сценариев для популярных игр в жанре экш, рпг, гонки, стратегии, логические игры. Множество аддонов и сценариев для Microsoft Flight Simulator Большая коллекция книг, учебников. Если нет возможности купить печатное издание - смело скачивайте цифровую версию книги или, быть может, журнала. Не любите читать - можно загрузить бесплатно аудикнигу. Для веб дизайнеров и программистов так же найдется множество специализированного софта, таких как: редакторы с подсветкой, среды программирования, компоненты, системы управления базами данных, разнообразные скрипты и шаблоны. Не так давно у нас появился материал для автолюбителей и владельцев мото - оригинальные и неоригинальные каталоги запчастей, книги и журналы по ремонту и обслуживанию, видеоуроки, статьи по чип тюнингу, прошивкам. Процедура получения контента элементарная, достаточно просто скачать торрент файл и добавить его в загрузку в вашем торрент клиенте. Если у вас нет специального торрент клиента, вы можете его скачать у нас.