(Techno, Electro, Tech House) [CD] VA - Ondrik - Республика Каzантип 2 - 2005, FLAC (tracks+.cue), lossless 

Цитировать
Ondrik - Республика Каzантип 2
Жанр: Techno, Electro, Tech House
Носитель: CD
Год издания: 2005
Издатель (лейбл): World Club Music
Номер по каталогу: ПРЗ CD51675
Аудиокодек: FLAC (*.flac)
Тип рипа: tracks+.cue
Битрейт аудио: lossless
Продолжительность: 01:14:49
Источник (релизер): обмен
Наличие сканов в содержимом раздачи: нет
Треклист:
01. Monologic - Dangerfalls (5:14)
02. Hannes Teichmann - Big Kiss (11:46)
03. Solovyev - Cyberfret (3:43)
04. Matthias Tanzmann - Anyway (5:29)
05. Steve Bug - Loverboy (6:34)
06. Sweet 'n Candy - Selection (4:24)
07. Booka Shade - S.T.A.R.R.Z (5:00)
08. Michael Mayer - Heiden (5:25)
09. DJ T. - Galaga (5:14)
10. Lax - Music Makes You (9:09)
11. Wings Of Sound - Secret Agenda (7:03)
12. 2 Rare People - Ocean (Undo & Vicknoise Remix) (5:48)

Лог создания рипа

Exact Audio Copy V1.0 beta 6 from 9. April 2015
EAC extraction logfile from 25. September 2015, 23:25
Ondrik / Республика Каzантип 2
Used drive : PIONEER DVD-RW DVR-220 Adapter: 1 ID: 1
Read mode : SecureUtilize accurate stream : YesDefeat audio cache : YesMake use of C2 pointers : No
Read offset correction : 6Overread into Lead-In and Lead-Out : NoFill up missing offset samples with silence : YesDelete leading and trailing silent blocks : NoNull samples used in CRC calculations : YesUsed interface : Native Win32 interface for Win NT & 2000Gap handling : Appended to previous track
Used output format : User Defined EncoderSelected bitrate : 896 kBit/sQuality : HighAdd ID3 tag : NoCommand line compressor : C:\Program Files (x86)\Exact Audio Copy\Flac\flac.exeAdditional command line options : -8 -V -T "ARTIST=%artist%" -T "TITLE=%title%" -T "ALBUM=%albumtitle%" -T "DATE=%year%" -T "TRACKNUMBER=%tracknr%" -T "GENRE=%genre%" -T "PERFORMER=%albuminterpret%" -T "COMPOSER=%composer%" %haslyrics%--tag-from-file=LYRICS="%lyricsfile%"%haslyrics% -T "ALBUMARTIST=%albumartist%" -T "DISCNUMBER=%cdnumber%" -T "TOTALDISCS=%totalcds%" -T "TOTALTRACKS=%numtracks%" -T "COMMENT=%comment%" %source% -o %dest%
TOC of the extracted CD
Track | Start | Length | Start sector | End sector --------------------------------------------------------- 1 | 0:00.00 | 5:13.58 | 0 | 23532 2 | 5:13.58 | 11:45.44 | 23533 | 76451 3 | 16:59.27 | 3:43.29 | 76452 | 93205 4 | 20:42.56 | 5:29.04 | 93206 | 117884 5 | 26:11.60 | 6:33.65 | 117885 | 147424 6 | 32:45.50 | 4:24.34 | 147425 | 167258 7 | 37:10.09 | 4:59.64 | 167259 | 189747 8 | 42:09.73 | 5:25.15 | 189748 | 214137 9 | 47:35.13 | 5:13.43 | 214138 | 237655 10 | 52:48.56 | 9:08.62 | 237656 | 278817 11 | 61:57.43 | 7:03.29 | 278818 | 310571 12 | 69:00.72 | 5:47.50 | 310572 | 336646
Track 1
Filename T:\MUSIC\VA - Ondrik - Республика Каzантип 2 (2005) [CD-FLAC]\1-01. Monologic - Dangerfalls.wav
Pre-gap length 0:00:02.00
Peak level 98.8 % Extraction speed 5.1 X Track quality 100.0 % Test CRC AAFDB26A Copy CRC AAFDB26A Track not present in AccurateRip database Copy OK
Track 2
Filename T:\MUSIC\VA - Ondrik - Республика Каzантип 2 (2005) [CD-FLAC]\1-02. Hannes Teichmann - Big Kiss.wav
Peak level 98.8 % Extraction speed 6.4 X Track quality 100.0 % Test CRC 8C146837 Copy CRC 8C146837 Track not present in AccurateRip database Copy OK
Track 3
Filename T:\MUSIC\VA - Ondrik - Республика Каzантип 2 (2005) [CD-FLAC]\1-03. Solovyev - Cyberfret.wav
Peak level 98.8 % Extraction speed 6.3 X Track quality 100.0 % Test CRC C4B8B092 Copy CRC C4B8B092 Track not present in AccurateRip database Copy OK
Track 4
Filename T:\MUSIC\VA - Ondrik - Республика Каzантип 2 (2005) [CD-FLAC]\1-04. Matthias Tanzmann - Anyway.wav
Peak level 98.8 % Extraction speed 7.3 X Track quality 100.0 % Test CRC 79917344 Copy CRC 79917344 Track not present in AccurateRip database Copy OK
Track 5
Filename T:\MUSIC\VA - Ondrik - Республика Каzантип 2 (2005) [CD-FLAC]\1-05. Steve Bug - Loverboy.wav
Peak level 98.8 % Extraction speed 7.9 X Track quality 100.0 % Test CRC B7FC3842 Copy CRC B7FC3842 Track not present in AccurateRip database Copy OK
Track 6
Filename T:\MUSIC\VA - Ondrik - Республика Каzантип 2 (2005) [CD-FLAC]\1-06. Sweet 'n Candy - Selection.wav
Peak level 98.8 % Extraction speed 7.9 X Track quality 100.0 % Test CRC 12D245C8 Copy CRC 12D245C8 Track not present in AccurateRip database Copy OK
Track 7
Filename T:\MUSIC\VA - Ondrik - Республика Каzантип 2 (2005) [CD-FLAC]\1-07. Booka Shade - S.T.A.R.R.Z.wav
Peak level 98.8 % Extraction speed 8.4 X Track quality 100.0 % Test CRC 50F70521 Copy CRC 50F70521 Track not present in AccurateRip database Copy OK
Track 8
Filename T:\MUSIC\VA - Ondrik - Республика Каzантип 2 (2005) [CD-FLAC]\1-08. Michael Mayer - Heiden.wav
Peak level 98.8 % Extraction speed 8.8 X Track quality 100.0 % Test CRC 7E7BC188 Copy CRC 7E7BC188 Track not present in AccurateRip database Copy OK
Track 9
Filename T:\MUSIC\VA - Ondrik - Республика Каzантип 2 (2005) [CD-FLAC]\1-09. DJ T. - Galaga.wav
Peak level 98.8 % Extraction speed 9.0 X Track quality 100.0 % Test CRC E8503B62 Copy CRC E8503B62 Track not present in AccurateRip database Copy OK
Track 10
Filename T:\MUSIC\VA - Ondrik - Республика Каzантип 2 (2005) [CD-FLAC]\1-10. Lax - Music Makes You.wav
Peak level 98.8 % Extraction speed 10.0 X Track quality 100.0 % Test CRC 12317759 Copy CRC 12317759 Track not present in AccurateRip database Copy OK
Track 11
Filename T:\MUSIC\VA - Ondrik - Республика Каzантип 2 (2005) [CD-FLAC]\1-11. Wings Of Sound - Secret Agenda.wav
Peak level 98.8 % Extraction speed 10.4 X Track quality 100.0 % Test CRC 4CA188ED Copy CRC 4CA188ED Track not present in AccurateRip database Copy OK
Track 12
Filename T:\MUSIC\VA - Ondrik - Республика Каzантип 2 (2005) [CD-FLAC]\1-12. 2 Rare People - Ocean (Undo & Vicknoise Remix).wav
Peak level 98.8 % Extraction speed 10.7 X Track quality 100.0 % Test CRC 75F2483A Copy CRC 75F2483A Track not present in AccurateRip database Copy OK
None of the tracks are present in the AccurateRip database
No errors occurred
End of status report
---- CUETools DB Plugin V2.1.6
[CTDB TOCID: cIiFrowjSn2uzAXgxOYMl_1hrEo-] disk not present in databaseSubmit result: cIiFrowjSn2uzAXgxOYMl_1hrEo- has been uploaded
==== Log checksum 6FCC994934B55D0CB5B7638B86B18DBDA64817B04B2C250115D483D93CB4B7E6 ====

Содержание индексной карты (.CUE)

REM GENRE "Electro, Tech House"REM DATE 2005REM DISCID 9511880CREM COMMENT "ExactAudioCopy v1.0b6"PERFORMER "Ondrik"TITLE "Республика Каzантип 2"FILE "1-01. Monologic - Dangerfalls.wav" WAVE  TRACK 01 AUDIO    TITLE "Dangerfalls"    PERFORMER "Monologic"    INDEX 01 00:00:00FILE "1-02. Hannes Teichmann - Big Kiss.wav" WAVE  TRACK 02 AUDIO    TITLE "Big Kiss"    PERFORMER "Hannes Teichmann"    INDEX 01 00:00:00FILE "1-03. Solovyev - Cyberfret.wav" WAVE  TRACK 03 AUDIO    TITLE "Cyberfret"    PERFORMER "Solovyev"    INDEX 01 00:00:00FILE "1-04. Matthias Tanzmann - Anyway.wav" WAVE  TRACK 04 AUDIO    TITLE "Anyway"    PERFORMER "Matthias Tanzmann"    INDEX 01 00:00:00FILE "1-05. Steve Bug - Loverboy.wav" WAVE  TRACK 05 AUDIO    TITLE "Loverboy"    PERFORMER "Steve Bug"    INDEX 01 00:00:00FILE "1-06. Sweet 'n Candy - Selection.wav" WAVE  TRACK 06 AUDIO    TITLE "Selection"    PERFORMER "Sweet 'n Candy"    INDEX 01 00:00:00FILE "1-07. Booka Shade - S.T.A.R.R.Z.wav" WAVE  TRACK 07 AUDIO    TITLE "S.T.A.R.R.Z"    PERFORMER "Booka Shade"    INDEX 01 00:00:00FILE "1-08. Michael Mayer - Heiden.wav" WAVE  TRACK 08 AUDIO    TITLE "Heiden"    PERFORMER "Michael Mayer"    INDEX 01 00:00:00FILE "1-09. DJ T. - Galaga.wav" WAVE  TRACK 09 AUDIO    TITLE "Galaga"    PERFORMER "DJ T."    INDEX 01 00:00:00FILE "1-10. Lax - Music Makes You.wav" WAVE  TRACK 10 AUDIO    TITLE "Music Makes You"    PERFORMER "Lax"    INDEX 01 00:00:00FILE "1-11. Wings Of Sound - Secret Agenda.wav" WAVE  TRACK 11 AUDIO    TITLE "Secret Agenda"    PERFORMER "Wings Of Sound"    INDEX 01 00:00:00FILE "1-12. 2 Rare People - Ocean (Undo & Vicknoise Remix).wav" WAVE  TRACK 12 AUDIO    TITLE "Ocean (Undo & Vicknoise Remix)"    PERFORMER "2 Rare People"    INDEX 01 00:00:00
Вы не можете начинать темы
Вы не можете отвечать на сообщения
Вы не можете редактировать свои сообщения
Вы не можете удалять свои сообщения
Вы не можете голосовать в опросах
Вы не можете прикреплять файлы к сообщениям
Вы можете скачивать файлы
!ВНИМАНИЕ!

Сайт не предоставляет электронные версии произведений, а занимается лишь коллекционированием и каталогизацией ссылок, присылаемых и публикуемых на форуме нашими читателями. Если вы являетесь правообладателем какого-либо представленного материала и не желаете, чтобы ссылка на него находилась в нашем каталоге, свяжитесь с нами, и мы незамедлительно удалим ее. Файлы для обмена на трекере предоставлены пользователями сайта, и администрация не несет ответственности за их содержание. Просьба не заливать файлы, защищенные авторскими правами, а также файлы нелегального содержания!

Искали программы, игры, дополнения, музыка mp3, аниме, аудио книги, журналы? Добро пожаловать на свободный торрент трекер Torrents, у нас можно скачать бесплатно, без смс и регистрации и прочих ограничений лучшие, отборные сборки программ, игр. Скачать торрентом не составит труда даже не опытному пользователю. Раздачи ежедневно обновляются, только лучшие и качественные раздачи, подробные описания и скриншоты. Огромная коллекция программ для работы со звуком, графикой, дизайном, а так же множество плагинов и инструментов к ним с подробной инструкцией и рекомендациями. Прошивки для навигаторов, карты. Разнообразные игры, для Windows, Linux. В коллекцие есть и старые игры любых жанров, Rpg, Action, Shooter, strategy Множество дополнений, модификаций, сценариев для популярных игр в жанре экш, рпг, гонки, стратегии, логические игры. Множество аддонов и сценариев для Microsoft Flight Simulator Большая коллекция книг, учебников. Если нет возможности купить печатное издание - смело скачивайте цифровую версию книги или, быть может, журнала. Не любите читать - можно загрузить бесплатно аудикнигу. Для веб дизайнеров и программистов так же найдется множество специализированного софта, таких как: редакторы с подсветкой, среды программирования, компоненты, системы управления базами данных, разнообразные скрипты и шаблоны. Не так давно у нас появился материал для автолюбителей и владельцев мото - оригинальные и неоригинальные каталоги запчастей, книги и журналы по ремонту и обслуживанию, видеоуроки, статьи по чип тюнингу, прошивкам. Процедура получения контента элементарная, достаточно просто скачать торрент файл и добавить его в загрузку в вашем торрент клиенте. Если у вас нет специального торрент клиента, вы можете его скачать у нас.