(Melodic Hard Rock | AOR) [CD] White Heat - We Never Heard Of You Either (BFZ-80138) - 1989, FLAC (image+.cue), lossless 

Цитировать
White Heat / We Never Heard Of You Either (BFZ-80138)
Жанр: Melodic Hard Rock | AOR
Носитель: CD
Страна-производитель диска (релиза): Canada
Год издания: 1989
Издатель (лейбл): CBS Associated Records
Номер по каталогу: BFZK-80138
Страна исполнителя (группы): Canada
Аудиокодек: FLAC (*.flac)
Тип рипа: image+.cue
Битрейт аудио: lossless
Продолжительность: 41:31
Источник (релизер): alzal (спасибо !)
Наличие сканов в содержимом раздачи: да
Треклист:
01. White Heat (3:33)
02. Crazy For You (4:37)
03. Rollin' With The Thunder (4:31)
04. Paranoia (5:22)
05. Got To Win Your Love (4:15)
06. All Thru The Night (4:24)
07. Fire (4:12)
08. When You're Gone (4:35)
09. Listen Closely (4:07)
10. Sometimes (3:54)

Лог создания рипа

Exact Audio Copy V1.3 from 2. September 2016
Отчёт EAC об извлечении, выполненном 6. октября 2018, 19:01
White Heat / We Never Heard Of You Either (BFZ-80138)
Дисковод: PLEXTOR BD-R PX-B950SA Adapter: 1 ID: 0
Режим чтения : ДостоверностьИспользование точного потока : ДаОтключение кэша аудио : ДаИспользование указателей C2 : Нет
Коррекция смещения при чтении : 6Способность читать области Lead-in и Lead-out : НетЗаполнение пропущенных сэмплов тишиной : ДаУдаление блоков с тишиной в начале и конце : НетПри вычислениях CRC использовались нулевые сэмплы : ДаИнтерфейс : Встроенный Win32-интерфейс для Win NT/2000
Выходной формат : Пользовательский кодировщикВыбранный битрейт : 1024 kBit/sКачество : ВысокийДобавление ID3-тега : НетУтилита сжатия : C:\Program Files (x86)\Exact Audio Copy\FLAC\FLAC.EXEДополнительные параметры : -6 -V -T "ARTIST=%artist%" -T "TITLE=%title%" -T "ALBUM=%albumtitle%" -T "DATE=%year%" -T "TRACKNUMBER=%tracknr%" -T "GENRE=%genre%" -T "COMMENT=%comment%" -T "BAND=%albuminterpret%" -T "ALBUMARTIST=%albuminterpret%" -T "COMPOSER=%composer%" %haslyrics%--tag-from-file=LYRICS="%lyricsfile%"%haslyrics% -T "DISCNUMBER=%cdnumber%" -T "TOTALDISCS=%totalcds%" -T "TOTALTRACKS=%numtracks%" %hascover%--picture="%coverfile%"%hascover% %source% -o %dest%
TOC извлечённого CD
Трек | Старт | Длительность | Начальный сектор | Конечный сектор --------------------------------------------------------------------- 1 | 0:00.00 | 3:33.30 | 0 | 16004 2 | 3:33.30 | 4:37.20 | 16005 | 36799 3 | 8:10.50 | 4:31.22 | 36800 | 57146 4 | 12:41.72 | 5:22.30 | 57147 | 81326 5 | 18:04.27 | 4:15.33 | 81327 | 100484 6 | 22:19.60 | 4:24.32 | 100485 | 120316 7 | 26:44.17 | 4:11.53 | 120317 | 139194 8 | 30:55.70 | 4:34.62 | 139195 | 159806 9 | 35:30.57 | 4:07.05 | 159807 | 178336 10 | 39:37.62 | 3:53.48 | 178337 | 195859
Характеристики диапазона извлечения и сообщения об ошибках
Выбранный диапазон
Имя файла G:\RIP\White Heat 1989 FLAC by alzal\White Heat - We Never Heard Of You Either (BFZ-80138).wav
Пиковый уровень 100.0 % Скорость извлечения 3.3 X Качество диапазона 100.0 % CRC теста 3916F692 CRC копии 3916F692 Копирование... OK
Ошибок не произошло
AccurateRip: сводка
Трек 1 : извлечено точно (доверие 9) [9F76FDC6] (AR v2)Трек 2 : извлечено точно (доверие 9) [194988AC] (AR v2)Трек 3 : извлечено точно (доверие 9) [D472D86F] (AR v2)Трек 4 : извлечено точно (доверие 9) [EBE34CB4] (AR v2)Трек 5 : извлечено точно (доверие 9) [F80012C4] (AR v2)Трек 6 : извлечено точно (доверие 9) [7BD9AC44] (AR v2)Трек 7 : извлечено точно (доверие 9) [6C147CAE] (AR v2)Трек 8 : извлечено точно (доверие 9) [C05A07E5] (AR v2)Трек 9 : извлечено точно (доверие 9) [575074C1] (AR v2)Трек 10 : извлечено точно (доверие 9) [BD78836A] (AR v2)
Все треки извлечены точно
Конец отчёта
---- CUETools DB Plugin V2.1.6
[CTDB TOCID: SHQzc.sVrxca7pLCDtN8ewpIAS8-] foundSubmit result: SHQzc.sVrxca7pLCDtN8ewpIAS8- has been confirmedTrack | CTDB Status 1 | (3/3) Accurately ripped 2 | (3/3) Accurately ripped 3 | (3/3) Accurately ripped 4 | (3/3) Accurately ripped 5 | (3/3) Accurately ripped 6 | (3/3) Accurately ripped 7 | (3/3) Accurately ripped 8 | (3/3) Accurately ripped 9 | (3/3) Accurately ripped 10 | (3/3) Accurately ripped
==== Контрольная сумма отчёта 8B2B7724EB6941556DF587D7C9D47E9C95A1292DE62D087810C95107F393145C ====

Лог проверки качества

-----------------------
DON'T MODIFY THIS FILE
-----------------------
PERFORMER: auCDtect Task Manager, ver. 1.6.0 RC1 build 1.6.0.1Copyright (c) 2008-2010 y-soft. All rights reservedhttp://y-soft.org
ANALYZER: auCDtect: CD records authenticity detector, version 0.8.2Copyright (c) 2004 Oleg Berngardt. All rights reserved.Copyright (c) 2004 Alexander Djourik. All rights reserved.
FILE: White Heat - We Never Heard Of You Either (BFZ-80138).flac Size: 310027101 Hash: 6119398580C7231F5A0945F91D0C8704 Accuracy: -m0 Conclusion: CDDA 100% Signature: 9DB4EB8C0C2DEF9189E00C99BDF1E06528391EAE

Лог DRM

foobar2000 1.2.9 / Dynamic Range Meter 1.1.1log date: 2018-10-13 21:37:20
--------------------------------------------------------------------------------Analyzed: White Heat / We Never Heard Of You Either (BFZ-80138)--------------------------------------------------------------------------------
DR Peak RMS Duration Track--------------------------------------------------------------------------------DR12 0.00 dB -15.91 dB 3:33 01-White HeatDR11 -1.34 dB -15.14 dB 4:37 02-Crazy For YouDR11 -2.52 dB -14.99 dB 4:31 03-Rollin' With The ThunderDR13 -1.62 dB -15.90 dB 5:22 04-ParanoiaDR11 -2.13 dB -15.70 dB 4:15 05-Got To Win Your LoveDR11 -2.88 dB -15.50 dB 4:24 06-All Thru The NightDR11 -2.52 dB -14.25 dB 4:12 07-FireDR12 -2.56 dB -17.83 dB 4:35 08-When You're GoneDR12 -2.09 dB -15.75 dB 4:07 09-Listen CloselyDR14 -2.10 dB -18.84 dB 3:54 10-Sometimes--------------------------------------------------------------------------------
Number of tracks: 10Official DR value: DR12
Samplerate: 44100 HzChannels: 2Bits per sample: 16Bitrate: 950 kbpsCodec: FLAC================================================================================
Доп. информация: Одно-альбомная группа с редчайшим канадским качеством. Спасибо за раритет ув. Александру (alzal)!

Об альбоме (сборнике)

http://rutracker.org/forum/viewtopic.php?t=2790859

Состав

ϟ White Heat is ϟ
Jim Galloway - Lead Vocals, Guitar
Allen Hunnie - Guitar, Vocals
Russ Goozee - Bass, Vocals
Wayne Young - Keyboards, Vocals
Alec Friesen - Drums
Additional Vocals - Connie And Joclyn, Peter Fredette, Rick Santers
Additional Guitars - Rick Santers
Addtitional Drums - Gill Moore
Produced by White Heat and Mark S. Berry
Recorded at Metalworks, Phase One Studios, Toronto, Canada and The Broc, New Jersey, USA
Вы не можете начинать темы
Вы не можете отвечать на сообщения
Вы не можете редактировать свои сообщения
Вы не можете удалять свои сообщения
Вы не можете голосовать в опросах
Вы не можете прикреплять файлы к сообщениям
Вы можете скачивать файлы
!ВНИМАНИЕ!

Сайт не предоставляет электронные версии произведений, а занимается лишь коллекционированием и каталогизацией ссылок, присылаемых и публикуемых на форуме нашими читателями. Если вы являетесь правообладателем какого-либо представленного материала и не желаете, чтобы ссылка на него находилась в нашем каталоге, свяжитесь с нами, и мы незамедлительно удалим ее. Файлы для обмена на трекере предоставлены пользователями сайта, и администрация не несет ответственности за их содержание. Просьба не заливать файлы, защищенные авторскими правами, а также файлы нелегального содержания!

Искали программы, игры, дополнения, музыка mp3, аниме, аудио книги, журналы? Добро пожаловать на свободный торрент трекер Torrents, у нас можно скачать бесплатно, без смс и регистрации и прочих ограничений лучшие, отборные сборки программ, игр. Скачать торрентом не составит труда даже не опытному пользователю. Раздачи ежедневно обновляются, только лучшие и качественные раздачи, подробные описания и скриншоты. Огромная коллекция программ для работы со звуком, графикой, дизайном, а так же множество плагинов и инструментов к ним с подробной инструкцией и рекомендациями. Прошивки для навигаторов, карты. Разнообразные игры, для Windows, Linux. В коллекцие есть и старые игры любых жанров, Rpg, Action, Shooter, strategy Множество дополнений, модификаций, сценариев для популярных игр в жанре экш, рпг, гонки, стратегии, логические игры. Множество аддонов и сценариев для Microsoft Flight Simulator Большая коллекция книг, учебников. Если нет возможности купить печатное издание - смело скачивайте цифровую версию книги или, быть может, журнала. Не любите читать - можно загрузить бесплатно аудикнигу. Для веб дизайнеров и программистов так же найдется множество специализированного софта, таких как: редакторы с подсветкой, среды программирования, компоненты, системы управления базами данных, разнообразные скрипты и шаблоны. Не так давно у нас появился материал для автолюбителей и владельцев мото - оригинальные и неоригинальные каталоги запчастей, книги и журналы по ремонту и обслуживанию, видеоуроки, статьи по чип тюнингу, прошивкам. Процедура получения контента элементарная, достаточно просто скачать торрент файл и добавить его в загрузку в вашем торрент клиенте. Если у вас нет специального торрент клиента, вы можете его скачать у нас.