(Melodic Hard Rock/AOR) [CD] Dreams - Dreams - 2013, FLAC (image+.cue), lossless 

Цитировать
Dreams / Dreams
Жанр: Melodic Hard Rock/AOR
Носитель: CD
Страна-производитель диска (релиза): Germany
Год издания: 2013
Издатель (лейбл): AOR Heaven Classix
Номер по каталогу: AOR Heaven Classix 0023
Страна исполнителя (группы): USA
Аудиокодек: FLAC (*.flac)
Тип рипа: image+.cue
Битрейт аудио: lossless
Продолжительность: 52:34
Источник (релизер): собственный рип
Наличие сканов в содержимом раздачи: да
Треклист:
1. Drive You Crazy - 4:25
2. The Fear Of Being Alone - 4:35
3. (Does It Feel) Like You Want It To - 5:03
4. Do You Feel For Me - 4:10
5. Livin' In Another World - 4:25
6. Feels Like I'm In Love - 4:20
7. Run - 4:22
8. Always There For You - 4:45
9. Coming Down On Me - 3:54
10. Something I Need - 4:31
11. Lovin' You Ain't Enough - 3:36
12. Livin' In Another World - 4:27

Лог создания рипа

Exact Audio Copy V1.0 beta 3 from 29. August 2011
EAC extraction logfile from 23. October 2018, 22:27
Dreams / Dreams
Used drive : SlimtypeDVD A DS8A5SH Adapter: 0 ID: 0
Read mode : SecureUtilize accurate stream : YesDefeat audio cache : YesMake use of C2 pointers : No
Read offset correction : 6Overread into Lead-In and Lead-Out : NoFill up missing offset samples with silence : YesDelete leading and trailing silent blocks : NoNull samples used in CRC calculations : YesUsed interface : Installed external ASPI interface
Used output format : User Defined EncoderSelected bitrate : 320 kBit/sQuality : HighAdd ID3 tag : NoCommand line compressor : C:\Program Files (x86)\Exact Audio Copy\Flac\flac.exeAdditional command line options : -V -8 -T "Date=%year%" -T "Genre=%genre%" %source%
TOC of the extracted CD
Track | Start | Length | Start sector | End sector --------------------------------------------------------- 1 | 0:00.00 | 4:25.03 | 0 | 19877 2 | 4:25.03 | 4:35.07 | 19878 | 40509 3 | 9:00.10 | 5:02.71 | 40510 | 63230 4 | 14:03.06 | 4:10.13 | 63231 | 81993 5 | 18:13.19 | 4:25.24 | 81994 | 101892 6 | 22:38.43 | 4:19.64 | 101893 | 121381 7 | 26:58.32 | 4:21.46 | 121382 | 141002 8 | 31:20.03 | 4:45.08 | 141003 | 162385 9 | 36:05.11 | 3:54.20 | 162386 | 179955 10 | 39:59.31 | 4:31.33 | 179956 | 200313 11 | 44:30.64 | 3:35.56 | 200314 | 216494 12 | 48:06.45 | 4:27.11 | 216495 | 236530
Range status and errors
Selected range
Filename D:\My Music\Dreams - 2013 Dreams\Dreams - Dreams.wav
Peak level 100.0 % Extraction speed 1.8 X Range quality 100.0 % Test CRC B6ECB28D Copy CRC B6ECB28D Copy OK
No errors occurred
AccurateRip summary
Track 1 accurately ripped (confidence 3) [62C82324] (AR v2)Track 2 accurately ripped (confidence 3) [24E9864E] (AR v2)Track 3 accurately ripped (confidence 3) [735C7501] (AR v2)Track 4 accurately ripped (confidence 3) [B7E863FB] (AR v2)Track 5 accurately ripped (confidence 3) [8FC0CEB8] (AR v2)Track 6 accurately ripped (confidence 3) [0AA5DB5D] (AR v2)Track 7 accurately ripped (confidence 3) [A5B33B6F] (AR v2)Track 8 accurately ripped (confidence 3) [D00D2A7D] (AR v2)Track 9 accurately ripped (confidence 3) [CE487CB3] (AR v2)Track 10 accurately ripped (confidence 3) [A31D5369] (AR v2)Track 11 accurately ripped (confidence 3) [C7B7B487] (AR v2)Track 12 accurately ripped (confidence 3) [E55B86A0] (AR v2)
All tracks accurately ripped
End of status report
==== Log checksum E8F86FC12A4AF1BE0E308B70E516501754513170EF8D3C8A245A1EB070F099C0 ====
Вы не можете начинать темы
Вы не можете отвечать на сообщения
Вы не можете редактировать свои сообщения
Вы не можете удалять свои сообщения
Вы не можете голосовать в опросах
Вы не можете прикреплять файлы к сообщениям
Вы можете скачивать файлы
!ВНИМАНИЕ!

Сайт не предоставляет электронные версии произведений, а занимается лишь коллекционированием и каталогизацией ссылок, присылаемых и публикуемых на форуме нашими читателями. Если вы являетесь правообладателем какого-либо представленного материала и не желаете, чтобы ссылка на него находилась в нашем каталоге, свяжитесь с нами, и мы незамедлительно удалим ее. Файлы для обмена на трекере предоставлены пользователями сайта, и администрация не несет ответственности за их содержание. Просьба не заливать файлы, защищенные авторскими правами, а также файлы нелегального содержания!

Искали программы, игры, дополнения, музыка mp3, аниме, аудио книги, журналы? Добро пожаловать на свободный торрент трекер Torrents, у нас можно скачать бесплатно, без смс и регистрации и прочих ограничений лучшие, отборные сборки программ, игр. Скачать торрентом не составит труда даже не опытному пользователю. Раздачи ежедневно обновляются, только лучшие и качественные раздачи, подробные описания и скриншоты. Огромная коллекция программ для работы со звуком, графикой, дизайном, а так же множество плагинов и инструментов к ним с подробной инструкцией и рекомендациями. Прошивки для навигаторов, карты. Разнообразные игры, для Windows, Linux. В коллекцие есть и старые игры любых жанров, Rpg, Action, Shooter, strategy Множество дополнений, модификаций, сценариев для популярных игр в жанре экш, рпг, гонки, стратегии, логические игры. Множество аддонов и сценариев для Microsoft Flight Simulator Большая коллекция книг, учебников. Если нет возможности купить печатное издание - смело скачивайте цифровую версию книги или, быть может, журнала. Не любите читать - можно загрузить бесплатно аудикнигу. Для веб дизайнеров и программистов так же найдется множество специализированного софта, таких как: редакторы с подсветкой, среды программирования, компоненты, системы управления базами данных, разнообразные скрипты и шаблоны. Не так давно у нас появился материал для автолюбителей и владельцев мото - оригинальные и неоригинальные каталоги запчастей, книги и журналы по ремонту и обслуживанию, видеоуроки, статьи по чип тюнингу, прошивкам. Процедура получения контента элементарная, достаточно просто скачать торрент файл и добавить его в загрузку в вашем торрент клиенте. Если у вас нет специального торрент клиента, вы можете его скачать у нас.